<?xml version="1.0" standalone="no"?>
<!DOCTYPE svg PUBLIC "-//W3C//DTD SVG 1.1//EN" "http://www.w3.org/Graphics/SVG/1.1/DTD/svg11.dtd" >
<svg xmlns="http://www.w3.org/2000/svg">
<metadata></metadata>
<defs>
<font id="opendyslexicitalic" horiz-adv-x="1640" >
<font-face units-per-em="2048" ascent="1638" descent="-410" />
<missing-glyph horiz-adv-x="800" />
<glyph unicode="&#xfb01;" horiz-adv-x="1480" d="M1252 1107q-221 -11 -477 -11h-88q-59 0 -89 1q4 41 5 64q1 31 6 63q11 73 45 117q40 54 145 56q28 7 84 19q28 6 84 20l9 66q4 45 7 65l-113 -12q-61 -6 -119 -18q-136 -29 -216 -99q-64 -56 -87 -163q-14 -65 -16 -175q-83 3 -164 9q-2 -20 -4 -56t-4 -56q81 -5 163 -6 q-54 -560 -124 -966q77 7 227 13q39 476 63 951q29 -1 88 -1h87q160 0 320 3q-62 -509 -83 -961q122 -8 213 -20q-5 104 -5 247q0 360 43 850zM1149 1525q-2 -16 -6.5 -51t-7.5 -53l-15 -105q55 4 80 5q26 1 80 5q6 41 17 107q2 16 7.5 52t8.5 55q-79 -9 -164 -15z" />
<glyph unicode="&#xfb02;" horiz-adv-x="1551" d="M792 1404h54q147 0 280 7q-97 -747 -115 -1379q141 -6 274 -22q-3 144 -3 145v23q0 15 1 23q-17 2 -53 4q-19 0 -53 2q18 668 131 1328q-214 -20 -504 -20q-88 0 -150 -16q-83 -22 -143 -80q-30 -38 -43 -75q-23 -64 -32 -163q-5 -48 -14 -81q-52 2 -77 4q-13 1 -39 2.5 t-38 1.5q-1 -60 -6 -122l77 -3q12 -1 38 -1t38 -1q-54 -530 -136 -959q110 10 276 15q25 516 34 940q46 -1 139 -1h138q2 29 6 59q4 40 5 59h-139q-93 0 -139 1v62v31q0 20 -1 31q7 60 12 77q12 43 37 69q43 39 145 39z" />
<glyph horiz-adv-x="0" />
<glyph unicode="&#xd;" horiz-adv-x="2048" />
<glyph horiz-adv-x="300" />
<glyph horiz-adv-x="300" />
<glyph unicode=" "  horiz-adv-x="800" />
<glyph unicode="&#x09;" horiz-adv-x="800" />
<glyph unicode="&#xa0;" horiz-adv-x="800" />
<glyph unicode="!" horiz-adv-x="687" d="M466 492v49q0 98 1 147t1 148q34 457 51 632q-39 -14 -93 -14q-43 0 -82 12q-73 -685 -116 -974q62 9 122 9q59 0 116 -9zM419 219v34q-49 11 -92 11q-44 0 -96 -11l-21 -119q-4 -20 -11.5 -60t-10.5 -60q57 24 119 24q63 0 115 -24q0 17 -0.5 51.5t-1.5 51.5 q-1 34 -1 102z" />
<glyph unicode="&#x22;" horiz-adv-x="942" d="M347 1483v-38q0 -273 -60 -529q31 3 182 10q30 240 35 548q-13 0 -39 1.5t-39 2.5q-52 2 -79 5zM907 1483q-25 -1 -80 -5q-40 -3 -80 -3q-46 -273 -58 -549q15 0 45 -2t45 -2q45 -2 90 -6q-5 59 -5 140q0 210 43 427z" />
<glyph unicode="#" horiz-adv-x="1553" d="M903 1431h-141q-12 -37 -34 -104.5t-30 -94.5l-63 -200q-28 0 -85 1t-85 1q-112 2 -170 5l-3 -65q0 -11 -2 -33t-2 -33q137 -4 305 -4q-43 -133 -114 -343q-110 -2 -164 -2t-164 -2q-6 -44 -8 -66t-8 -66q25 1 75 2t75 2q24 0 74 1.5t75 2.5q-74 -212 -157 -408l70 3 q12 0 35 1t35 2q107 279 150 403q100 2 149 2h149q-21 -67 -65 -199q-38 -111 -66 -200h69h36q23 0 34 -1q27 94 62 200q21 65 63 199l167 -3q110 -2 167 -3q0 10 1.5 32t2.5 33t2.5 33t1.5 32q-50 1 -150 2.5t-150 1.5q54 171 111 342q219 2 328 5l9 67l9 66 q-148 -6 -299 -9q55 160 160 410l-70 -3q-11 -1 -35 -2t-35 -2q-78 -188 -154 -405q-50 -1 -148 -1h-149q49 154 136 400zM849 563h-118q-39 -1 -119 -1q33 94 113 340q50 1 148 1h147q-6 -19 -25.5 -78t-30.5 -91q-38 -114 -56 -171h-59z" />
<glyph unicode="$" horiz-adv-x="1261" d="M752 1292l25 225q-27 0 -40 1t-40 1q-3 -38 -11 -114q-5 -39 -13 -115q-153 -9 -263 -60q-75 -35 -119 -108q-44 -70 -49 -152q0 -154 74 -232q50 -51 128 -82q65 -27 150 -42q-3 -29 -9.5 -96t-10.5 -102l-21 -198q-215 5 -377 113q-5 -55 -12 -107l-15 -108 q163 -66 383 -73q-13 -80 -50 -290q106 0 159 -3l3 146q0 24 2 72.5t2 73.5q181 9 297 92q55 41 92 117q33 67 33 142q0 147 -79 218q-52 47 -141 76q-38 12 -159 38q29 278 49 466q196 -9 325 -75q2 11 5.5 33t4.5 33l9 66q-138 37 -332 44zM601 743l-13 -9q-90 8 -158 62 q-75 58 -75 145q0 107 81 172q69 56 211 72q-7 -74 -23 -220q-15 -140 -23 -222zM670 579l12 9q89 -14 150 -59q72 -55 72 -135q0 -47 -15 -84q-21 -47 -64 -59q-66 -24 -177 -41q8 124 11 185q6 122 11 184z" />
<glyph unicode="%" horiz-adv-x="2031" d="M1526 1486q-188 -241 -532 -743q-337 -494 -533 -744q48 3 138 5q179 233 529 746q331 482 535 742l-68 -3zM605 1490q-8 0 -11 1h-12q-139 -2 -215 -93q-48 -59 -68 -145q-17 -69 -17 -158q0 -173 68 -274q37 -55 99 -80q56 -24 130 -24q64 0 123.5 26.5t104.5 74.5 q58 64 85 153q25 81 25 168q0 149 -73 239q-88 107 -239 112zM594 1385h11q88 -4 136 -80q43 -68 43 -161q0 -64 -17 -129q-21 -79 -61 -125q-50 -57 -123 -57q-91 0 -137 84q-36 64 -36 169v14q0 8 1 13v11q0 95 43 172q51 89 140 89zM1304 670v1q-59 -64 -86 -153 q-24 -79 -24 -170q0 -152 74 -238q40 -54 116 -84q66 -27 144 -27q65 0 118 21q64 25 98 73q50 60 70 147q16 71 16 158q0 177 -70 272q-34 51 -92 77.5t-126 26.5q-146 0 -238 -104zM1533 669q83 0 130 -76q37 -62 37 -158q0 -109 -34 -185q-48 -107 -147 -107 q-94 0 -144 70q-47 63 -47 159q0 112 44 194q54 103 161 103z" />
<glyph unicode="&#x26;" horiz-adv-x="1688" d="M573 939q-67 76 -88 110q-43 67 -43 127q0 96 73 156q68 54 166 54q135 0 306 -90q24 40 74 120q-162 65 -312 65q-184 0 -291 -87q-54 -43 -85 -115q-28 -66 -28 -138q0 -104 82 -236q-139 -96 -215 -221q-85 -141 -85 -292q0 -167 98 -266q62 -62 158 -91 q85 -26 187 -26q280 0 489 171q34 -39 71 -77q21 -24 70 -77q124 -7 222 -16q-86 96 -129 143q-111 121 -130 143q93 124 125 250q29 117 52 245q-26 -1 -78 -1h-77q-14 -109 -42 -197q-33 -105 -91 -182q-81 88 -239 264q-119 132 -240 264zM460 852l235 -271 q117 -135 237 -270q-75 -63 -167 -98t-185 -35q-141 0 -230 71q-100 77 -100 217q0 111 60 216q52 90 150 170z" />
<glyph unicode="'" horiz-adv-x="517" d="M498 1484q-41 -11 -78 -11q-39 0 -72 11q-14 -276 -47 -536q39 10 80 10q37 0 70 -10q14 276 47 536z" />
<glyph unicode="(" horiz-adv-x="753" d="M797 1538q-94 -16 -137 -16q-168 -199 -275 -397q-122 -226 -156 -447q-9 -115 -9 -230q0 -369 100 -662q100 -2 186 -17q-88 228 -103 447q-9 142 -9 234t5 210q23 219 142 460q87 176 256 418z" />
<glyph unicode=")" horiz-adv-x="775" d="M372 1560l6 -17q-5 2 -17 4l4 4zM515 1528q129 -290 129 -673q0 -184 -26 -330q-33 -174 -104 -313q-106 -210 -240 -413q-115 0 -206 -20q159 223 256 419q117 242 150 457q11 121 11 262q0 347 -107 626q56 -10 137 -15z" />
<glyph unicode="*" horiz-adv-x="1175" d="M609 613h94q3 64 13 185q2 29 7.5 91t8.5 94q62 -41 309 -206q29 42 48 77q-121 77 -329 198q265 142 364 198q-10 22 -33 79q-172 -106 -347 -207q15 173 36 370h-94l-15 -185q-5 -61 -15 -185l-156 102q-65 40 -155 104q-13 -20 -24 -39q-14 -26 -23 -39 q162 -104 330 -198q-220 -115 -365 -198q14 -31 17 -38q2 -6 7.5 -19t8.5 -20q102 59 174 103q88 54 173 103q-5 -68 -17 -185t-17 -185z" />
<glyph unicode="+" horiz-adv-x="1500" d="M750 1248l-21 -267q-6 -80 -23 -268q-346 0 -521 4l-13 -150q174 0 261 1q86 1 260 1q-11 -133 -24 -267q-5 -45 -13.5 -134t-12.5 -134h148q5 92 19 268q4 44 11.5 133t10.5 134h261q86 0 260 -2l13 149q-233 -4 -521 -4q31 348 53 536h-148z" />
<glyph unicode="," horiz-adv-x="578" d="M113 225q-7 -119 -13 -198q-21 -51 -61 -153q-33 -81 -66 -152q29 5 55 6l54 3q51 60 121 151q76 102 115 153q11 102 28 199q-84 -10 -172 -10h-31q-20 0 -30 1z" />
<glyph unicode="-" horiz-adv-x="821" d="M202 633h-35q4 -17 4 -41q0 -56 -28 -103q225 9 516 9q-6 21 -6 43q0 53 30 102q-332 -11 -447 -11q-23 0 -34 1z" />
<glyph unicode="." horiz-adv-x="618" d="M99 314v-38q0 -134 -27 -266q70 6 141 6q70 0 139 -6q-1 7 -1 20v21q0 135 28 263q-75 -6 -150 -6q-65 0 -130 6z" />
<glyph unicode="/" horiz-adv-x="796" d="M708 1443q-132 -285 -357 -811q-247 -575 -357 -812q77 12 208 18q99 240 316 812q193 508 320 809q-56 -9 -130 -16z" />
<glyph unicode="0" horiz-adv-x="1268" d="M766 1480h-29q-107 0 -205 -48q-106 -52 -169 -148q-71 -104 -112 -262q-23 -88 -50 -277q-7 -112 -7 -192q0 -228 72 -373q42 -82 133 -128q84 -42 185 -42h32q108 0 203 49q104 52 168 147q71 108 111 262q26 98 51 278q7 105 7 181q0 232 -73 382q-40 82 -131 129 q-84 42 -186 42zM729 1421h16q6 0 9 1h9q88 0 154 -61q64 -59 78 -155q14 -66 14 -159q0 -58 -9 -147q-15 -131 -46 -236q-43 -142 -110 -221q-82 -97 -201 -97q-4 0 -6 1h-7h-11q-67 0 -121 34q-55 34 -78 94q-35 95 -35 241q0 147 13 249q18 144 65 260q30 85 104 140 q75 56 162 56z" />
<glyph unicode="1" horiz-adv-x="1341" d="M1075 10v35q0 99 5 226q-104 11 -315 17q44 591 107 1168q-32 -2 -48 -2h-48h-47q-32 0 -48 1q-227 -37 -348 -42q-1 -28 -1 -82l-3 -82q175 15 349 48q-42 -531 -86 -1009q-135 -1 -319 -15q-25 -185 -38 -259q217 25 414 25q211 0 426 -29z" />
<glyph unicode="2" horiz-adv-x="1386" d="M809 741h1q-85 -83 -234 -186q-225 -169 -340 -269q-8 -46 -22.5 -138t-21.5 -138q234 28 473 28q232 0 455 -28q0 180 4 271q-186 18 -463 18l-4 6q-4 4 -5 6q44 125 183 259q37 35 164 162l-2 -1q91 106 135 198q53 111 53 224q0 149 -93 227q-63 53 -163 80 q-80 20 -186 20q-65 0 -142 -11.5t-128.5 -23t-140.5 -34.5q0 -79 -5 -179q223 102 407 102q115 0 190 -57q84 -64 84 -177q0 -87 -55 -180v1q-41 -71 -144 -180z" />
<glyph unicode="3" horiz-adv-x="1318" d="M862 352h1q-59 -48 -149 -67q-66 -15 -161 -15q-207 0 -337 73q-18 -145 -42 -291q170 -44 345 -44q142 0 238 19q136 25 233 94q80 61 118 170q31 88 31 200t-58 201q-62 93 -196 101q0 7 1 10v10q128 25 209 134q78 105 78 235q0 164 -146 240q-112 58 -294 58 q-149 0 -394 -39q-1 -23 -1 -68l-3 -69q212 50 370 50q112 0 189 -36q104 -51 104 -165q0 -123 -91 -199q-85 -71 -207 -71q-63 0 -94 1t-95 1q-1 -25 -5 -70q-3 -22 -7 -71h52h90q46 0 91 -6q102 -14 162 -67q78 -69 78 -162q0 -47 -36 -90q-20 -24 -74 -67z" />
<glyph unicode="4" horiz-adv-x="1321" d="M650 444h104q-13 -100 -24 -203q-6 -57 -23 -204q152 -2 250 -10q-5 153 -5 275q0 44 2 138l96 -3q15 0 47 -1.5t48 -2.5q1 23 5 74q0 13 1.5 37t2.5 37q-16 0 -47 0.5t-47 1.5q-31 1 -95 1q35 517 88 880q-163 -8 -240 -9q-285 -375 -665 -909q-6 -58 -13 -113 q272 11 515 11zM864 1395q-48 -371 -88 -809q-274 0 -497 -4q389 554 585 813z" />
<glyph unicode="5" horiz-adv-x="1289" d="M346 1474q-4 -342 -37 -716q143 64 302 64q151 0 242 -66q85 -67 85 -205q0 -63 -30 -114q-26 -43 -77 -89q-55 -50 -137 -71q-69 -18 -151 -18q-202 0 -336 73q-3 -24 -9.5 -72t-10.5 -72q-14 -96 -23 -144q156 -36 356 -36q129 0 227 22q121 26 210 95q87 68 127 187 q33 99 33 217q0 196 -106 310q-63 65 -162 98q-85 28 -193 28q-67 0 -197 -30q11 136 25 397q129 -6 259 -6q204 0 357 14q1 9 4.5 31t5.5 34t5.5 34t4.5 31q-188 -18 -374 -18q-205 0 -400 22z" />
<glyph unicode="6" horiz-adv-x="1306" d="M1041 841q48 -54 73 -142q20 -69 20 -162q0 -118 -29 -216q-34 -115 -116 -192q-71 -68 -175 -96q-87 -23 -196 -23q-114 0 -202 42q-100 46 -146 134q-74 137 -74 360t33 379q48 226 167 363q86 103 221 152q113 41 260 41q123 0 268 -37q-10 -58 -23 -161 q-131 52 -264 52q-97 0 -177 -28q-92 -32 -150 -103q-70 -86 -109 -211q-23 -71 -48 -223q65 91 160 143q97 53 201 53q93 0 170 -29q83 -31 136 -96zM1153 1442l-8 2q0 1 0.5 3t0.5 3v-1zM961 509v23q0 130 -57 208q-31 46 -85 69t-117 23q-132 0 -218 -93 q-50 -56 -77 -132q-26 -75 -26 -147q0 -101 93 -151q73 -39 188 -39t196 50q98 60 102 166q0 15 1 23z" />
<glyph unicode="7" horiz-adv-x="1234" d="M348 1484v-65q0 -44 -1 -66q196 -26 431 -26q138 0 323 12q-91 -170 -327 -654q-211 -429 -332 -654q112 7 238 7h51q34 0 51 -1q39 115 115 345q37 115 115 345q143 421 254 683q1 19 6 37l6 37q-248 -31 -479 -31t-451 31z" />
<glyph unicode="8" horiz-adv-x="1321" d="M487 801l-2 -19q-144 -32 -230 -127q-57 -57 -87 -145q-26 -77 -26 -163q0 -164 95 -240q72 -57 173 -79q86 -19 196 -19q115 0 199 19q107 24 185 80q76 54 114 156q31 81 31 186q0 126 -78 219q-75 86 -199 115l2 17q122 22 202 139q71 104 71 235q0 127 -80 197 q-61 52 -149 73q-68 16 -171 16q-94 0 -174 -18q-95 -21 -162 -73l-1 1q-65 -52 -95 -129q-27 -70 -27 -155q0 -102 56 -183q58 -84 157 -103zM432 1159q4 108 97 169q84 55 191 55q108 0 179 -44q83 -51 83 -155q0 -115 -82 -195q-83 -81 -194 -81h-11q-8 0 -11 1 q-4 -1 -11 -1h-11q-92 0 -162 62q-71 61 -71 154q0 17 3 35zM669 738q136 2 212 -77q66 -72 66 -187q-1 -99 -92 -175q-45 -38 -110 -54q-56 -14 -120 -14q-65 0 -118 14q-62 16 -101 54q-65 63 -65 130q-1 63 26 126t75 105q89 78 227 78z" />
<glyph unicode="9" horiz-adv-x="1304" d="M1111 1313q79 -149 79 -380q0 -215 -35 -375q-48 -223 -166 -358q-85 -102 -217 -150q-115 -42 -257 -42q-139 0 -273 39q14 82 39 278q123 -55 264 -55q98 0 163 13q94 19 155 58q74 61 108 177q15 50 24 102q5 35 17 101q-67 -93 -158 -143q-98 -54 -203 -54 q-93 0 -170 29q-85 32 -136 96q-48 56 -71 144q-20 74 -20 165q0 116 30 213q37 118 114 189q72 67 176 96q84 24 195 24q109 0 197 -39q99 -46 145 -128zM1032 949q21 62 21 144q0 127 -69 193q-47 50 -120 71q-62 18 -144 18q-159 0 -259 -88q-59 -52 -86 -128 q-25 -72 -25 -150q0 -62 16 -105q21 -56 67 -73q87 -36 248 -38q155 0 252 39q68 26 99 117zM241 40v1q0 3 -5 8l6 -2q0 -1 -0.5 -3.5t-0.5 -3.5z" />
<glyph unicode=":" horiz-adv-x="677" d="M264 1092q-6 -92 -8 -133q-6 -88 -10 -133q52 -13 112 -13q59 0 119 12q11 119 29 267q-63 -23 -125 -23q-60 0 -117 23zM200 297q-15 -156 -31 -287q65 20 126 20q68 0 116 -20q1 24 5 72t5 72l9 143q-54 9 -111 9q-49 0 -119 -9z" />
<glyph unicode=";" horiz-adv-x="640" d="M258 1062l-9 -133q-6 -88 -11 -133q22 -2 32 -2h33q83 0 150 17l15 138q2 21 7.5 67t8.5 70q-73 -28 -159 -28q-36 0 -67 4zM193 213q-2 -30 -8 -88t-8 -88q-9 -27 -19.5 -56.5t-22.5 -65t-19 -55.5q-26 -74 -61 -178q53 20 125 25q33 55 99 163q77 124 100 162 q2 33 8 89q5 44 6 88q-54 5 -124 5h-38q-13 -1 -38 -1z" />
<glyph unicode="&#x3c;" horiz-adv-x="1562" d="M1446 992q20 72 50 162q-281 -90 -643 -184q-270 -70 -649 -163q-6 -64 -31 -210q197 -103 564 -280q416 -202 565 -279q0 114 10 218q-209 108 -461 229q-213 100 -464 225q697 172 1059 282z" />
<glyph unicode="=" horiz-adv-x="1632" d="M228 920q15 -74 18 -149q288 -6 578 -6q308 0 619 6q15 72 47 149q-346 -11 -653 -11q-330 0 -609 11zM230 542q-18 -98 -51 -180q338 11 643 11q294 0 619 -11q-22 81 -22 180q-240 4 -537 4q-360 0 -652 -4z" />
<glyph unicode="&#x3e;" horiz-adv-x="1560" d="M292 1109q234 -123 463 -231q214 -102 465 -227q-175 -46 -525 -136q-267 -69 -524 -144q-36 -143 -63 -220q178 55 321 95q288 81 645 170l324 81q8 79 32 212q-125 64 -564 279q-367 177 -564 280q-2 -52 -4 -79q-5 -41 -6 -80z" />
<glyph unicode="?" horiz-adv-x="1071" d="M611 867v1q-35 -32 -67 -67q-57 -62 -79 -153q-15 -63 -22 -151q-4 -53 -7 -77q105 4 231 4q6 76 8 120q3 59 23 118q6 16 17 32l22 30v-1q14 20 21 31q14 20 21 31q27 27 83 85q99 105 133 159q60 95 60 191q0 115 -73 182q-49 43 -126 63q-61 14 -146 14 q-193 0 -380 -79l-3 -67q-2 -44 -3 -67q195 102 341 102q93 0 155 -54q65 -58 65 -150q0 -56 -61 -119q-33 -34 -111 -93h1q-27 -20 -51 -42q-34 -30 -52 -43zM651 283h-40q-88 0 -195 -5l-15 -128q-2 -22 -7.5 -65t-8.5 -64q97 7 206 7h40q2 21 5.5 63.5t4.5 64.5 q1 20 4.5 62.5t5.5 64.5z" />
<glyph unicode="@" horiz-adv-x="1939" d="M626 1153h-1q199 122 450 122q166 0 304 -64q148 -69 233 -190q81 -127 81 -298q0 -97 -23 -186q-28 -102 -85 -176q-87 -111 -241 -133q22 334 65 714q-78 -2 -116 -2q-4 -48 -7 -72l-9 -72q-49 74 -120 116q-79 45 -165 45q-170 0 -277 -116q-68 -69 -100 -171 q-28 -90 -28 -193q0 -155 74 -248q82 -114 258 -114q89 0 173 45q79 41 140 116l-6 -83q-2 -27 -6 -83q116 0 216 33q114 37 192 110q94 87 141 229q40 121 40 258q0 212 -101 365q-94 142 -259 219q-157 72 -349 72q-184 0 -352 -59q-180 -63 -316 -180 q-143 -137 -215 -336q-66 -183 -66 -384q0 -152 40 -278q45 -142 134 -238q103 -118 265 -178q150 -56 325 -56q315 0 564 177q-30 60 -72 161q-196 -140 -472 -142q-155 2 -267 35q-134 40 -221 138q-97 124 -130 185q-12 21 -22 42q-31 67 -31 170q0 215 88 395 q98 202 274 305zM701 615q12 127 86 197q74 73 191 73q106 0 172 -60q69 -64 69 -172q0 -151 -88 -239q-72 -72 -190 -72q-108 0 -174 61q-68 63 -68 175q0 13 2 37z" />
<glyph unicode="A" d="M919 1454h-175q-88 -182 -171 -363q-74 -161 -170 -365q-210 -443 -369 -716q123 10 251 18q68 140 109 240q148 4 332 4q183 0 332 -4q23 -124 51 -239q111 -5 265 -19q-71 168 -133 354q-100 298 -217 725q-53 191 -105 365zM817 1314q49 -199 99 -416 q53 -232 100 -417q-91 0 -136 1h-136q-88 0 -272 -2q98 232 173 417q93 232 172 417z" />
<glyph unicode="B" horiz-adv-x="1471" d="M958 794l1 17q126 11 203 127q66 102 66 232q0 78 -41 145q-45 68 -126 99q-100 38 -259 40q-280 5 -454 30q0 -759 -129 -1474q251 28 530 28q115 0 201 17q107 21 190 75q82 53 118 150q30 80 30 185q0 133 -98 228q-95 90 -232 101zM524 1351q150 -9 303 -9 q116 0 185 -46q85 -57 85 -171q0 -61 -20 -112q-28 -66 -81 -102q-73 -50 -209 -50h-145q-48 0 -146 2q21 268 28 488zM484 723h314q64 0 122 -13q66 -15 105 -53h-1q21 -20 33 -34t23.5 -37.5t11.5 -47.5q0 -58 -21 -107q-26 -57 -71 -84q-84 -43 -239 -43q-134 0 -323 -7 q18 142 25 213z" />
<glyph unicode="C" horiz-adv-x="1522" d="M1280 154v-33q-182 -112 -438 -112q-157 0 -284 41q-148 46 -236 147q-67 85 -97 202q-27 99 -27 229q0 194 43 346q54 196 175 316q105 105 265 153q132 38 297 38q114 0 220 -25q108 -26 193 -85q-13 -68 -30 -184q-74 74 -176.5 113t-215.5 39q-120 0 -219 -29 q-116 -34 -195 -113q-96 -105 -139 -256q-36 -127 -36 -271q0 -92 20 -157q25 -81 80 -129q66 -55 183 -81q80 -18 205 -18q117 0 222 41q112 42 198 118q-8 -155 -8 -290zM1392 1377l2 -8q0 1 -1 1t-2 1z" />
<glyph unicode="D" horiz-adv-x="1601" d="M348 1484q1 -21 1 -64v-65q0 -682 -130 -1345q163 18 407 25q209 8 327 33q182 39 304 133q132 112 188 331q40 156 40 359q0 127 -26 217q-33 112 -104 183q-105 96 -282 133q-109 23 -323 33q-217 5 -402 27zM534 1322q141 -7 248 -8q146 -6 236 -29q128 -34 205 -115 q50 -57 73 -142q18 -67 18 -163q0 -56 -4 -99q-38 -112 -68 -168q-48 -90 -119 -139q-48 -28 -100 -43q-93 -27 -212 -32q-18 -1 -53.5 -2.5t-52.5 -1.5q-122 -1 -244 -6q56 454 73 948z" />
<glyph unicode="E" horiz-adv-x="1427" d="M348 1484q-8 -762 -129 -1474q236 28 477 28q240 0 465 -28q0 194 5 291q-211 17 -446 17q-140 0 -281 -6q26 236 41 409q223 0 334 1h333q1 13 3 37t3 37q2 22 8 74q-235 -5 -419 -5q-82 0 -250 2q22 276 30 450q144 -9 290 -9q222 0 435 22q5 40 12 76q4 21 13 76 q-240 -29 -467 -29q-234 0 -457 31z" />
<glyph unicode="F" horiz-adv-x="1118" d="M346 1478q-38 -773 -168 -1468q87 13 233 23q15 161 49 651q120 0 179 1h179h89q59 0 89 -1l9 94q3 46 9 93q-164 -4 -366 -4q-61 0 -91 1h-91q20 150 51 434q80 -4 182 -4q222 0 421 24q12 83 25 162q-225 -31 -432 -31q-189 0 -367 25z" />
<glyph unicode="G" horiz-adv-x="1615" d="M894 551h151q50 0 150 -2l-6 -83q-4 -56 -5 -84l-2 -3q0 -1 -1 -2t-1 -2q-27 -27 -63 -40q-71 -27 -164 -29q-14 0 -41 -0.5t-40 -1.5q-115 2 -203 19q-111 20 -183 73q-57 48 -83 139q-18 62 -18 167q0 144 35 267q44 152 138 251q79 76 200 111q99 27 223 27 q128 0 239 -38q116 -40 204 -119q4 42 12 84q2 14 6.5 42t7.5 42q-96 61 -226 89q-116 23 -250 23q-159 0 -293 -39q-161 -48 -262 -149q-88 -85 -139 -206q-45 -104 -65 -241q-16 -108 -16 -232q0 -131 26 -225q31 -117 98 -195q88 -103 242 -148q120 -36 292 -36 q142 0 269 30q138 31 252 105q0 267 28 596h-248q-82 -1 -248 -1z" />
<glyph unicode="H" horiz-adv-x="1602" d="M347 1482q-8 -779 -149 -1472q104 10 212 18q38 244 63 489q168 3 336 3q167 0 337 -3q-19 -254 -20 -489q137 -9 210 -18q-4 96 -4 216q0 606 113 1256q-64 -6 -96 -8l-97 -9q-52 -309 -85 -694q-318 -2 -475 -2q-65 0 -98 1h-98q29 342 40 694q-112 7 -189 18z" />
<glyph unicode="I" horiz-adv-x="674" d="M344 1468q-88 -912 -158 -1458q55 28 115 28t107 -28q37 670 108 1464q-41 -20 -94 -20q-39 0 -78 14z" />
<glyph unicode="J" horiz-adv-x="815" d="M85 -400h-1q11 2 41.5 7.5t47.5 8.5q51 8 89 19q104 28 164 81q65 64 95 167q17 60 32 187q89 803 188 1402q-59 -14 -192 -20q-55 -377 -176 -1359q-15 -91 -104 -143q-68 -41 -173 -58q-7 0 -21 2t-21 2l-43 3q-25 -241 -34 -309q36 4 108 10z" />
<glyph unicode="K" horiz-adv-x="1617" d="M347 1479q-14 -743 -168 -1469q43 5 122 11q20 2 60 4.5t60 3.5q33 361 45 723q280 -472 441 -715q240 -5 444 -27q-191 207 -354 391q-127 144 -351 394q144 128 389 342q54 47 186 162.5l204 178.5q-142 -13 -232 -16q-121 -105 -361 -311q-159 -137 -357 -316 q36 330 53 629q-88 6 -181 15z" />
<glyph unicode="L" horiz-adv-x="1364" d="M347 1481q-20 -758 -149 -1471q230 28 465 28q223 0 436 -25q7 144 24 288q-203 17 -427 17q-134 0 -269 -6q71 575 99 1150q-78 4 -179 19z" />
<glyph unicode="M" horiz-adv-x="1840" d="M509 1240v60q6 0 9 1q1 1 4 1.5t4 0.5q42 -137 74 -257q65 -242 130 -519q20 -87 62 -261q36 0 55 1h55h55q18 -1 55 -1q18 43 70 170t74.5 182t69 165.5t77.5 181.5t73.5 164t82.5 175q3 -1 8 -1q1 -1 4 -1.5t4 -0.5q-124 -692 -136 -1274q99 -5 235 -17 q-11 176 -11 334q0 548 110 1137q-133 -11 -267 -18q-122 -199 -245 -434l-231 -441q-163 518 -302 873q-167 9 -281 20q0 -774 -159 -1471q141 12 237 16q84 612 84 1214z" />
<glyph unicode="N" horiz-adv-x="1568" d="M467 1239l16 4q74 -158 137 -302l132 -305q167 -387 276 -604q165 -9 274 -22q-1 19 -1 59v58q0 656 130 1357q-57 -7 -167 -15q-106 -562 -152 -1211q-76 157 -266 588q-172 385 -273 585q-19 2 -58 4.5t-59 3.5q-63 3 -116 10q-20 -750 -168 -1439q83 9 236 19 q59 616 59 1210z" />
<glyph unicode="O" horiz-adv-x="1598" d="M908 1480q-147 0 -267 -42q-142 -50 -233 -149q-118 -123 -170 -324q-40 -155 -40 -350q0 -121 24 -221q26 -107 91 -195q74 -96 200 -145q114 -44 251 -44q149 0 273 41q141 47 236 149q115 132 167 324q44 162 44 350q0 120 -24 220q-27 111 -90 196q-72 100 -203 149 q-111 41 -259 41zM1149 435v1q-132 -75 -341 -75q-101 0 -172 14q-96 19 -158 59q-53 34 -78 104q-19 53 -19 135q0 138 34 264q40 146 122 245q62 79 163 121q88 37 195 37q101 0 187.5 -40t139.5 -117q80 -131 80 -337q0 -131 -23 -218q-37 -137 -130 -193z" />
<glyph unicode="P" horiz-adv-x="1266" d="M346 1476q-40 -780 -187 -1466q93 11 222 20q54 317 84 564q82 2 121 2h120q105 0 189 23q102 28 169 92q81 75 122 196q36 105 36 220q0 85 -26 147q-33 75 -95 115q-64 38 -153 53q-72 12 -167 12q-249 0 -435 22zM534 1395q87 -5 260 -5q116 0 189 -41q99 -57 99 -184 q0 -25 -3 -47q-1 -116 -98 -204q-92 -84 -211 -84q-95 0 -293 2q24 200 57 563z" />
<glyph unicode="Q" horiz-adv-x="1816" d="M1205 95v14q78 82 171 236q61 109 90 264q23 124 23 266q0 125 -24 218q-28 110 -92 191q-76 103 -214 151q-113 39 -270 39q-139 0 -257 -44q-135 -50 -225 -144q-112 -117 -164 -306q-42 -147 -42 -333q0 -280 122 -451q73 -98 203 -147q113 -43 255 -43q42 0 74 4 q49 -62 97 -118q64 -78 97 -117q235 -6 445 -29q-109 132 -145 174q-63 73 -144 175zM895 1334q104 0 187 -38q90 -41 142 -120q82 -125 82 -329q0 -148 -43 -253q-54 -128 -175 -188q-118 16 -219 66q-4 -6 -19.5 -29.5t-24.5 -35.5l-44 -66q-98 14 -167 33.5t-132 59.5 q-56 34 -81 108q-19 56 -19 141q0 137 35 257q40 142 120 238q132 156 358 156z" />
<glyph unicode="R" horiz-adv-x="1623" d="M967 699l1 11q121 37 187 166q56 109 56 241q0 84 -28 150q-34 77 -102 122q-103 60 -289 66q-259 5 -444 29v-64q0 -718 -129 -1410q139 15 223 18q46 304 74 614q102 2 151 2q113 0 180 -48q39 -33 72 -90q23 -41 50 -106q77 -241 126 -369q172 -10 262 -21 q-103 211 -183 403l-36 82q-23 48 -43 79q-55 88 -129 119zM1017 1304h-1q76 -54 76 -188q0 -22 -1 -33q-1 -5 -1 -16t-1 -16q-7 -96 -117 -166q-98 -62 -206 -62h-126q-84 0 -126 1q19 238 31 556q88 -7 260 -9q119 -2 212 -67z" />
<glyph unicode="S" horiz-adv-x="1376" d="M554 1287q-111 -71 -111 -206q0 -90 48 -137q28 -22 67 -39t67.5 -24.5t77.5 -17.5q33 -8 90 -19q103 -21 176 -50q40 -16 80 -43q141 -100 141 -299q0 -103 -29 -186q-35 -100 -112 -155q-93 -62 -211 -83q-91 -16 -218 -18q-234 0 -450 64q30 185 43 293 q190 -112 430 -112q165 0 265 65q45 30 70 60q33 40 33 82q0 80 -75 135q-57 41 -158 69q-40 10 -80 18q-81 14 -142 33q-89 25 -149 64q-93 60 -120 160q-17 63 -17 126q0 93 32 174q36 91 110 143q80 56 184 78q84 18 197 18q217 0 418 -52q-3 -14 -6.5 -41.5t-6.5 -41.5 q-5 -30 -13 -90q-202 85 -382 85q-152 0 -249 -53zM1212 1435l3 -4q0 -1 0.5 -2.5t1.5 -2.5l-6 2q0 1 0.5 3.5t0.5 3.5z" />
<glyph unicode="T" horiz-adv-x="1548" d="M348 1484q2 -102 2 -151q109 -8 284 -8q115 0 232 3q-72 -689 -154 -1291q51 0 76 1h76h57q36 0 55 -1q12 488 70 1292q91 -4 205 -4q130 0 312 7q10 64 29 152q-333 -31 -640 -31t-604 31z" />
<glyph unicode="U" horiz-adv-x="1516" d="M347 1483v-70q0 -397 -46 -852q-7 -75 -7 -128q0 -90 19 -159q22 -81 75 -143q63 -69 180 -99q87 -23 213 -23q127 0 222 26q124 34 206 113q73 77 109 196q28 91 37 217q39 528 116 922q-15 -1 -46 -5t-46 -5q-62 -6 -92 -7q-49 -294 -90 -740q-9 -103 -29 -178 q-26 -98 -81 -164q-51 -56 -131 -81q-65 -20 -152 -20q-90 0 -149 20q-79 25 -119 81q-55 85 -55 232q0 49 5 109q36 420 42 739q-100 8 -181 19z" />
<glyph unicode="V" d="M734 37q60 0 91 1h91h67q44 0 67 -1q24 61 73.5 183t74.5 183q84 208 151 365q179 423 339 716q-15 -1 -47 -3.5t-48 -4.5q-32 -3 -96 -7q-84 -142 -154 -271q-122 -226 -284 -553q-16 -31 -64.5 -128t-75.5 -150q-39 114 -91 277t-91 277q-97 289 -202 547 q-98 6 -187 16q62 -172 114 -355q86 -305 185 -727q44 -190 87 -365z" />
<glyph unicode="W" horiz-adv-x="2166" d="M1319 1087h-157q-104 -171 -201 -342q-109 -187 -205 -341q-47 306 -97 540q-62 294 -140 528l-171 12q94 -324 144 -719q42 -332 57 -738q167 7 301 8q149 294 373 795q9 -37 38 -154.5t43 -171.5t39 -147.5t48 -170t48 -150.5l139 -3q23 -1 70 -2t70 -2q93 405 204 739 q126 383 292 716q-31 -1 -86 -5q-58 -4 -88 -5q-225 -418 -467 -1089q-63 159 -130 350q-82 234 -124 352z" />
<glyph unicode="X" horiz-adv-x="1659" d="M346 1477q124 -232 379 -779q-342 -422 -572 -688q129 14 303 21q173 238 366 532q159 -329 271 -531q182 -9 300 -22q-149 215 -435 688q344 527 533 783q-17 -2 -49 -4.5t-48 -3.5q-67 -6 -97 -7q-177 -241 -438 -633q-190 388 -321 629q-32 3 -96 7q-32 2 -96 8z" />
<glyph unicode="Y" horiz-adv-x="1526" d="M348 1484q69 -147 149 -334.5t119.5 -286.5t135.5 -341q-25 -258 -49 -485q49 0 74 1h72h54q36 0 54 -1q16 291 34 486l284 486q142 243 299 475q-114 -12 -195 -16q-179 -259 -485 -760q-217 491 -354 758q-16 1 -48 3.5t-48 4.5q-64 6 -96 10z" />
<glyph unicode="Z" horiz-adv-x="1661" d="M347 1481v-151q247 -22 541 -22q170 0 370 8q-502 -499 -1015 -1035q-32 -195 -48 -271q299 28 603 28t597 -28q-3 90 -3 181v50q0 33 1 50q-262 17 -554 17q-159 0 -385 -7q173 174 511 520q252 259 510 519q5 23 13 71t13 71q-293 -28 -595 -28q-293 0 -559 27z" />
<glyph unicode="[" horiz-adv-x="930" d="M425 -31h-37q58 626 123 1421q5 -1 17 -1h17q110 0 205 32q4 42 7 63q2 11 4.5 31.5t3.5 30.5q-108 -38 -212 -38q-108 0 -192 38q-55 -932 -158 -1806q101 34 207 34q104 0 197 -34l6 102q1 51 6 102q-76 25 -194 25z" />
<glyph unicode="\" horiz-adv-x="1117" d="M492 1450q-88 13 -145 32q46 -249 138 -825q86 -552 135 -825q52 -4 186 -36q-65 298 -158 827q-92 518 -156 827z" />
<glyph unicode="]" horiz-adv-x="930" d="M459 -40h-32q-109 0 -202 -26q-3 -33 -11 -97t-11 -97q101 34 207 34q104 0 197 -34q47 859 158 1806q-108 -38 -212 -38q-108 0 -192 38q-1 -11 -2.5 -31.5t-1.5 -30.5q-1 -10 -2 -31t-2 -32q77 -32 191 -32h20q14 0 21 1q-75 -820 -126 -1430z" />
<glyph unicode="^" horiz-adv-x="1534" d="M970 1473h-148q-74 -66 -144 -135q-48 -46 -144 -136q-170 -159 -301 -256q23 0 70 1.5t71 2.5l140 3q55 55 100 107q63 73 183 227q44 55 92 113q42 -64 71 -114q37 -63 70 -115q86 -137 156 -217l141 -3q45 -1 140 -5q-71 57 -134 122q-115 116 -243 269 q-52 62 -120 136z" />
<glyph unicode="_" horiz-adv-x="1364" d="M1011 -313q-247 -4 -552 -4q-273 0 -493 4q26 -29 26 -71q0 -54 -39 -89q259 3 521 3q261 0 522 -3q-27 24 -27 68q0 56 42 92z" />
<glyph unicode="`" horiz-adv-x="786" d="M543 1281h32q88 0 214 -7q-33 40 -63 84q-61 89 -115 176q-38 58 -59 87q-117 2 -174 7q48 -80 87 -172q42 -98 78 -175z" />
<glyph unicode="a" horiz-adv-x="1264" d="M881 720l-2 -28q-42 -1 -125 -1h-126q-182 0 -315 -64q-95 -46 -145 -156q-43 -95 -43 -205q0 -117 62 -185q79 -79 234 -79q131 0 234 45q119 51 187 154l-3 -89l-3 -90q121 -7 162 -12q-1 15 -1 45v45q0 252 30 538q6 72 6 110q0 172 -84 269q-56 56 -148 79 q-72 18 -175 18q-165 0 -370 -61q-2 -42 -2 -61q0 -21 -2 -63q156 73 345 73q67 -5 120 -21q59 -18 111 -61q56 -55 56 -154q0 -1 -3 -46zM771 581l-4 -50q-3 -21 -7 -60q-6 -40 -11 -61q-17 -67 -59 -108q-38 -28 -103 -41q-42 -8 -110 -8q-77 0 -145 16q-34 7 -54 40 q-18 30 -18 68q13 109 84 157q32 17 63 26q64 17 134 19q11 1 33 1t33 1h164z" />
<glyph unicode="b" horiz-adv-x="1365" d="M847 1120h-31q-97 0 -187 -48q-96 -53 -143 -137q-1 1 -2 1t-1.5 0.5t-1.5 0.5t-11 2q21 175 52 586l-82 9q-43 3 -80 10q-10 -426 -23 -614.5t-66 -548.5l127 -162q37 -96 128 -153q86 -57 194 -57q6 0 9 1h9h16q88 -1 169.5 36t140.5 105q81 94 116 241q28 116 28 256 q0 197 -85 325q-99 147 -276 147zM1117 604v-1q-16 -72 -37 -125q-29 -69 -77 -108q-84 -57 -200 -64q-66 0 -118 16q-60 19 -105 66q-51 65 -57 207q16 193 107 309q87 110 243 110q134 0 197 -117q48 -92 48 -246v-23q-1 -8 -1 -24z" />
<glyph unicode="c" horiz-adv-x="1205" d="M807 285h12q69 0 131 30q-4 -73 -4 -161q0 -34 2 -104q-134 -49 -291 -49q-128 0 -223 28q-118 34 -184 117q-94 113 -94 320q0 146 33 263q41 152 134 241q83 80 211 117q102 29 234 29q142 0 270 -47q-8 -35 -12 -67l-12 -73q-125 64 -273 64q-89 0 -159 -26 q-85 -33 -136 -93q-55 -63 -83 -150q-24 -75 -32 -167q0 -65 16 -112q18 -60 60 -91q49 -33 107 -46t141 -20zM1039 1075q1 -4 4 -8l-5 2q0 1 0.5 3t0.5 3z" />
<glyph unicode="d" horiz-adv-x="1326" d="M530 10h15q107 0 207 56q98 56 154 154q-2 -32 -4 -96l-3 -96q27 -3 81 -7q40 -3 81 -9q11 732 157 1535q-15 -2 -43 -5.5t-40 -4.5q-52 -6 -83 -8q-61 -342 -91 -584q-6 -2 -9 -2l-9 -3q-34 83 -119 134q-79 46 -179 46h-29q-87 0 -166 -38q-84 -40 -138 -108 q-87 -104 -127 -258q-33 -128 -33 -273q0 -179 75 -293q45 -68 120 -104.5t163 -36.5q7 0 10 1h10zM262 579v2q12 107 45 195q39 105 105 165q77 70 181 70h25q81 0 140 -51q60 -52 78 -138q16 -77 16 -164q0 -88 -15 -151q-23 -100 -82 -143q-30 -20 -71 -31.5t-70.5 -14.5 t-76.5 -5q-61 0 -111 11q-60 13 -96 49q-62 67 -68 206z" />
<glyph unicode="e" horiz-adv-x="1302" d="M1111 675l-1 -1q0 15 1 23v23q0 94 -15 155q-20 82 -67 134q-53 53 -146 80q-67 19 -170 25q-113 -2 -209 -34q-109 -37 -184 -113q-84 -90 -130 -239q-38 -125 -38 -259q0 -100 21 -172q24 -88 79 -149q64 -74 180 -109q88 -27 215 -36q210 0 401 64q-2 38 -2 57v57v57 q0 38 1 57q-70 -36 -167 -44q-58 -5 -176 -5q-92 0 -158 14q-89 18 -148 56q-45 32 -66 98q-15 47 -15 122q0 3 3 78h144q47 -1 143 -1q248 0 497 3q0 5 2 15t2 15zM989 751q-188 -4 -419 -4h-111q-36 0 -110 2q6 116 103 200q96 90 254 90q122 0 202 -85q76 -81 81 -203z " />
<glyph unicode="f" horiz-adv-x="928" d="M796 1501h31q50 0 91 4q-2 -12 -5.5 -34.5t-4.5 -32.5l-9 -68q-9 -1 -28 -1h-29q-31 0 -93 2q-72 -6 -108 -37q-32 -38 -42 -137v-51q0 -35 1 -52q152 2 278 14q-8 -62 -17 -162q-115 -6 -275 -8q-34 -531 -47 -900q-11 1 -31 1h-32q-91 0 -184 -9q57 370 119 910 q-85 2 -155 7q4 54 7 81q4 54 5 81q37 -5 154 -12q9 38 15 82q13 109 47 175q20 40 64 73t102 52q57 19 114 23q11 -1 32 -1z" />
<glyph unicode="g" horiz-adv-x="1293" d="M648 1105h-31q-90 0 -170 -32q-85 -34 -144 -103q-79 -87 -113 -228q-26 -109 -26 -245q0 -209 83 -332q44 -69 119 -106t161 -37q234 0 365 181q0 -16 -2 -46q-2 -15 -4 -47q-28 -102 -116 -195q-48 -53 -126 -78q-61 -20 -145 -22q-168 0 -291 67q-24 -204 -40 -301 q132 -36 306 -36q132 0 217 20q122 27 197 102q77 84 114 227q14 57 40 247q60 555 143 970q-41 -6 -83 -9l-83 -9q-16 -64 -24 -95l-24 -96q-40 94 -128 149q-88 54 -195 54zM861 575q-10 -85 -28 -135q-27 -76 -85 -109q-99 -42 -231 -42q-142 0 -203 42q-23 23 -35 53 q-20 48 -25 128q-1 12 -2.5 34t-1.5 32q8 99 25 159q26 89 73 147q40 50 102.5 76t129.5 26q133 0 206 -80q79 -87 79 -253q0 -42 -4 -78z" />
<glyph unicode="h" horiz-adv-x="1411" d="M852 1120h-27q-102 0 -202 -61q-94 -58 -157 -152q31 269 58 616q-65 5 -164 17q-29 -788 -173 -1530q85 11 206 20q19 177 28 303q15 209 22 302q12 157 106 267q44 50 106.5 76.5t127.5 26.5q130 0 188 -102q31 -69 31 -166q0 -33 -3 -65q-40 -371 -56 -641 q103 -8 202 -21q-4 107 -4 237q0 213 12 429q3 40 3 81q0 136 -49 235q-33 64 -107 99q-65 29 -148 29z" />
<glyph unicode="i" horiz-adv-x="645" d="M359 1538l-12 -103q-6 -39 -13 -104q31 -24 74 -24t84 23q4 52 6 105q1 34 5 104q-34 -24 -76 -24q-41 0 -68 23zM325 1104q-44 -484 -110 -1094q38 29 87 29q45 0 77 -29q36 550 82 1095q-41 -12 -72 -12t-64 11z" />
<glyph unicode="j" horiz-adv-x="698" d="M491 1512q-3 -19 -8.5 -54t-7.5 -50q-2 -17 -7.5 -52t-8.5 -53q99 9 163 27q3 34 7 107q2 32 8 106q-60 -19 -146 -31zM216 -82h1q-22 -21 -50 -33q-46 -22 -113 -32q-25 -4 -55 -11q-5 -43 -17 -129q-7 -43 -19 -129q46 16 90 23q31 5 93 19q111 27 172 81q50 48 76 132 q16 51 26 147q59 552 135 1106q-73 -10 -148 -12q-35 -243 -66 -483q-18 -136 -65 -484q-7 -62 -17 -101q-13 -54 -43 -94z" />
<glyph unicode="k" horiz-adv-x="1443" d="M360 1540q-26 -778 -173 -1530q56 7 113 12l112 9q12 178 19 266q10 146 14 266q147 -210 385 -526q176 -5 347 -27q-203 226 -550 591l219 249q108 124 219 249q-70 -3 -199 -5q-95 -99 -206 -220l-205 -223q47 437 69 873q-63 3 -164 16z" />
<glyph unicode="l" horiz-adv-x="770" d="M359 1537q-59 -776 -153 -1527q78 29 154 29q120 0 208 -39q4 74 14 208q-101 31 -183 31q40 480 113 1277q-5 -1 -16 -1h-17q-72 0 -120 22z" />
<glyph unicode="m" horiz-adv-x="2050" d="M1552 52v-31q39 -1 117 -5l115 -6q-29 173 -29 360q0 156 16 306q8 88 8 134q0 90 -21 164q-22 71 -87 112q-63 37 -141 37q-150 0 -243 -62q-93 -58 -169 -175q-14 2 -17 2q-23 115 -127 176q-93 54 -223 54q-95 0 -183 -50q-90 -51 -136 -138l-8 3l-9 3q11 86 15 165 q-13 1 -40 2t-41 2l-81 3q3 -77 3 -152q0 -488 -143 -946q82 4 224 10q53 249 72 612q7 146 87 261q90 127 228 127q61 0 108 -18q54 -21 88 -72q34 -62 34 -162q0 -34 -3 -65q-59 -333 -130 -672h235q19 296 54 599q12 162 102 269q91 114 254 114q76 0 111.5 -43 t35.5 -136q0 -34 -3 -69q-3 -25 -7 -68q-66 -385 -66 -645z" />
<glyph unicode="n" horiz-adv-x="1395" d="M1129 675q2 50 2 75q0 139 -45 239q-34 63 -108 98q-65 29 -149 29q-196 0 -401 -152q1 12 1.5 35.5t0.5 35.5q0 11 1 35t1 35q-105 6 -162 13q-8 -575 -129 -1108q85 8 235 16q31 307 42 614q13 163 97 257q50 53 125 74q64 18 140 18q54 0 94 -18q49 -23 72 -67 q25 -57 25 -135q0 -41 -5 -93q-57 -373 -77 -650q127 -5 240 -16q-13 144 -13 303q0 165 13 362z" />
<glyph unicode="o" horiz-adv-x="1265" d="M684 1114q-112 0 -199 -30q-107 -37 -173 -110q-87 -95 -126 -254q-29 -117 -29 -269q0 -196 82 -309q53 -76 150 -110q83 -29 192 -29q111 0 201 29q106 33 173 111q86 97 127 256q29 116 29 270q0 192 -82 305q-56 76 -153 110q-86 30 -192 30zM673 1002 q70 -1 129.5 -29t91.5 -83q54 -92 54 -232q0 -99 -15 -163q-25 -108 -93 -155q-91 -51 -229 -51q-145 0 -224 50q-38 28 -51 77q-12 40 -12 96q0 110 21 195q27 108 86 184q88 111 242 111z" />
<glyph unicode="p" horiz-adv-x="1305" d="M795 1107h-30q-105 0 -196 -45q-98 -48 -151 -138l-6 3l-9 3q7 49 13 80l12 80q-75 4 -161 15q-32 -790 -175 -1521q61 8 166 17q60 345 88 571l9 3q3 0 9 2q33 -85 118 -135q79 -46 180 -46h27q86 0 167 39t138 109q86 99 128 257q33 128 33 275q0 179 -76 291 q-44 68 -119.5 104t-164.5 36zM1060 587q-18 -114 -26 -141q-24 -80 -77 -122q-85 -57 -221 -57q-134 0 -219 57q-38 29 -55 84q-14 46 -14 105q0 108 21 196q25 110 86 184q90 116 253 116q128 0 197 -99q60 -86 60 -228q0 -43 -5 -95z" />
<glyph unicode="q" horiz-adv-x="1366" d="M522 -4h28q99 0 189 49q91 50 143 138q4 -3 15 -5q-31 -258 -49 -574q75 -4 163 -15q0 47 67 77q41 19 44 22q4 8 -6 16q-56 39 -70 195t10 383t54.5 423t71.5 406q-61 -8 -166 -17l-24 -95q-14 -48 -24 -96q-40 93 -128 150q-86 54 -193 54h-35q-87 1 -169 -36 t-141 -105q-79 -95 -114 -233q-28 -113 -28 -252q0 -213 83 -339q44 -69 118 -107.5t161 -38.5zM259 580q7 97 27 162q25 88 73 151q39 51 99.5 80t124.5 29q77 1 139.5 -27.5t97.5 -86.5q54 -92 54 -224q0 -101 -17 -174q-27 -115 -97 -167q-92 -52 -228 -52 q-142 0 -213 51q-63 57 -63 186q0 3 3 72z" />
<glyph unicode="r" horiz-adv-x="883" d="M840 1110h-29q-73 0 -137 -15q-81 -21 -133 -52q-24 -14 -72 -40q-24 -13 -70 -43q1 11 2.5 31t1.5 30t1.5 30t2.5 31q-117 7 -142 11q-42 -570 -146 -1083q90 14 216 19q16 190 33 530q17 177 90 280q45 65 134 94q68 21 160 21q39 0 64 -10q9 75 24 166z" />
<glyph unicode="s" horiz-adv-x="1155" d="M493 210h22q5 -1 14 -1h13q89 0 151 33q77 39 81 121q-30 63 -49 88q-42 33 -120 54q-15 4 -65 16q-35 7 -115 27q-64 16 -113 44q-75 43 -91 113q-11 47 -11 92q0 89 36 158q39 78 120 111q122 48 269 48q208 0 340 -40q-6 -42 -10 -63q-8 -46 -11 -69q-131 61 -325 61 q-111 0 -185 -39q-95 -49 -95 -154q0 -66 56 -110q47 -37 121 -57q56 -15 116 -25q91 -23 131 -39q69 -28 114 -70q63 -60 63 -176q0 -77 -29 -141q-33 -74 -96 -113q-72 -45 -171 -63q-71 -13 -179 -13q-166 0 -355 46q13 73 36 245q157 -84 337 -84zM980 1072l-5 2 q0 1 0.5 3t0.5 3z" />
<glyph unicode="t" horiz-adv-x="1103" d="M603 1091h-40q6 49 16.5 140.5t15.5 128.5q-91 0 -175 7q-6 -73 -26 -271q-35 2 -126 13q-1 -11 -2.5 -31t-1.5 -30l-3 -62q21 -3 63 -5q10 -1 31 -2t32 -2q-16 -189 -63 -600q-5 -48 -5 -92q0 -122 57 -179q27 -23 63 -37q66 -26 146 -32l75 -6q60 -6 89 -9 q46 -5 88 -12q1 113 8 255q-58 7 -170 13q-49 2 -81 9q-45 10 -69 34q-26 38 -26 105q0 1 3 70q18 160 26 239q16 158 25 238h42q91 0 204 5q6 40 8 60q1 30 6 60q-99 -7 -210 -7z" />
<glyph unicode="u" horiz-adv-x="1341" d="M536 1h27q106 0 209 61q97 58 159 155q-12 -110 -17 -194q109 -6 162 -11q1 548 120 1099q-97 -10 -196 -15q-45 -252 -66 -455q-26 -162 -111 -256q-86 -94 -243 -94q-116 0 -169 92q-35 71 -35 189q0 12 1 18v16q19 258 23 492q-33 4 -66 6q-24 1 -66 7q0 -30 1 -45 v-45q0 -282 -32 -579q-5 -58 -5 -104q0 -118 40 -211q33 -65 111 -98q66 -28 153 -28z" />
<glyph unicode="v" horiz-adv-x="1362" d="M268 1110q48 -127 90 -265q67 -216 147 -542q46 -182 70 -273q50 0 75 1h73h55q36 0 54 -1q23 53 65.5 153.5t50.5 120.5q57 136 117 273q139 313 265 533q-76 -6 -176 -13q-122 -203 -221 -402q-138 -272 -207 -409q-46 137 -136 409q-64 193 -151 401q-43 1 -85 6 q-15 1 -43.5 3.5t-42.5 4.5z" />
<glyph unicode="w" horiz-adv-x="1778" d="M857 732l-122 -209q-67 -115 -124 -207q-76 473 -182 784q-103 6 -161 10q82 -249 129 -534q36 -218 63 -552l117 3q76 2 116 2q114 205 262 506q77 -270 166 -505l121 -3q80 -2 121 -3q70 299 156 553q99 292 227 533q-3 0 -164 -9q-92 -172 -166 -357t-157 -428 q-80 185 -172 417q-15 -1 -43 -1h-43h-144z" />
<glyph unicode="x" horiz-adv-x="1468" d="M1259 1107q-59 -5 -164 -11q-172 -193 -383 -456q-145 255 -273 454q-106 5 -172 11q155 -239 338 -570q-213 -241 -487 -525q164 12 271 16q133 155 315 386q102 -186 229 -386q144 -5 269 -16q-152 187 -391 515q285 385 448 582z" />
<glyph unicode="y" horiz-adv-x="1362" d="M754 -83q62 131 139 301q46 100 140 300q172 365 297 592q-94 -11 -177 -18q-128 -211 -370 -650q-147 292 -344 649q-72 5 -171 19q137 -324 389 -1009q-9 -16 -25.5 -43.5t-20.5 -35.5t-20.5 -35.5t-25.5 -43.5q-48 -51 -49 -52q-62 -64 -108 -78q-53 -16 -122 -16 q-42 -2 -63 -4q-12 -74 -17 -111q-8 -59 -18 -112q60 6 95 8q107 5 187 29q81 24 148 100q50 57 96 137q7 14 21.5 40t18.5 33z" />
<glyph unicode="z" horiz-adv-x="1271" d="M267 1105v-117q157 -14 370 -14q120 0 293 7q-471 -436 -760 -717q-28 -184 -44 -254q225 21 450 21q239 0 430 -20q-2 94 -2 141v44q0 28 1 43q-193 12 -390 12q-107 0 -215 -3q145 147 343 353q116 121 341 354q17 98 29 155q-233 -23 -453 -23q-198 0 -393 18z" />
<glyph unicode="{" horiz-adv-x="1156" d="M173 550h-10q1 30 6 62q5 30 6 61q14 0 21 -1q14 -2 21 -2q57 0 105 11q58 13 97 45q36 36 54 94q12 39 20 106q4 57 12 115q8 76 11 115q16 108 28 146q26 81 79 125q77 46 193 70q48 10 101 18q51 8 98 18q-5 -28 -21 -125q-31 -8 -64 -12q-78 -10 -134 -30 q-34 -12 -60 -34q-30 -33 -44 -86q-7 -21 -10 -48q-1 -7 -3.5 -23.5t-4.5 -24.5q-4 -35 -13 -119q-18 -159 -33 -228q-12 -55 -44 -104q-48 -64 -154 -86l-1 -18q48 -13 76 -31q39 -27 54 -61q24 -58 24 -160v-35q-8 -80 -11 -119l-12 -120q0 -101 34 -146v1q27 -31 81 -45 q16 -5 48 -11q7 -1 23 -3.5t24 -4.5q20 -2 29 -4q8 -2 28 -4q-1 -29 -5 -92q-2 -32 -4 -92q-11 2 -90 14q-114 14 -193 45q-44 16 -80 47q-57 67 -57 205q0 69 14 167q13 104 13 167q0 115 -35 173q-28 35 -81 50q-40 11 -99 13h-6q-10 0 -15 1h-16z" />
<glyph unicode="|" horiz-adv-x="624" d="M242 637q11 -1 35 -1h35h35q11 0 35 2q52 403 126 917q-56 -41 -126 -41h-14q-4 0 -14 2q-38 -294 -56 -439q-18 -146 -56 -440zM263 -440q42 388 108 955q-24 -1 -71 -1h-70q-65 -500 -140 -987q59 38 127 38q18 0 46 -5z" />
<glyph unicode="}" horiz-adv-x="1172" d="M766 619l-2 -18q-111 -29 -153 -91q-30 -44 -42 -98q-8 -33 -17 -105q-9 -94 -22 -238q-8 -68 -16 -98q-16 -57 -47 -89q-25 -21 -59 -33q-61 -23 -133 -30q-8 -1 -20.5 -2.5t-21.5 -3t-17 -2.5l-9 -67q-2 -11 -5 -34t-5 -34q7 1 26 5q5 1 14 2t13 2q28 6 86 16 q40 6 86 15q101 21 163 64q53 48 77 129q14 46 24 147q10 111 18 229q8 68 20 109q19 63 53 98q38 36 101 50q37 8 110 8h33l10 123q-12 1 -24 0q-9 -1 -25 -1q-64 0 -100 9q-53 11 -85 46q-38 50 -38 143q0 31 3 61l20 231q4 39 4 88q0 126 -57 188q-41 31 -83 46 q-78 28 -193 44q-47 7 -92 18q-2 -42 -2 -62l-3 -63q22 -4 56 -9q32 -4 66 -12q79 -18 117 -55q33 -43 33 -122q0 -71 -13 -190q-13 -121 -13 -192q0 -90 26 -135q35 -66 138 -87z" />
<glyph unicode="~" horiz-adv-x="1530" d="M1424 818q8 -5 10 -8l-22 -12q2 4 6 10.5t6 9.5zM810 708q49 -20 78 -30.5t73.5 -20.5t83.5 -10q90 0 202 56q46 23 95 53q41 25 70 42q-33 -63 -42 -133q-51 -38 -82 -63q-95 -75 -173 -106q-81 -32 -171 -7q-54 15 -135 56q-22 11 -68 31h2q-134 78 -231 81 q-81 -1 -176 -66q-109 -76 -206 -133q49 84 55 182q73 62 156 99q90 40 176 40q128 0 260 -57q6 -4 14 -6h-1q11 -3 20 -8z" />
<glyph unicode="&#xa1;" horiz-adv-x="717" d="M543 1225l27 255q-51 -26 -117 -26q-59 0 -107 24l-9 -127q-6 -84 -9 -127q51 -17 102 -17q52 0 113 18zM491 656v-1q5 85 6 171t6 171q-54 -7 -93 -7q-40 0 -81 6q-7 -57 -23 -171q-9 -57 -25 -171q-38 -360 -74 -644q57 28 124 28q68 0 120 -29q13 256 40 647z" />
<glyph unicode="&#xa2;" horiz-adv-x="1186" d="M774 1103q153 -5 257 -50q-4 -38 -7 -56l-9 -62q-119 64 -255 68q-33 -280 -86 -805q140 6 269 64q-3 -58 -9 -113q-7 -61 -8 -113q-112 -39 -271 -46q-3 -50 -11 -137q-7 -67 -12 -137l-41 3q-15 0 -41 2q5 50 13 139q8 92 13 138q-111 12 -190 47q-99 43 -152 115 q-81 112 -81 299q0 139 33 255q40 146 130 234q68 72 176 112q83 31 201 43q2 22 7.5 68t8.5 71q3 23 8 69t8 69q14 1 42 1q20 -2 41 0q-13 -104 -34 -278zM1032 1059l3 -4q1 -1 1 -2q0 -2 1 -2l-6 2q0 1 0.5 3t0.5 3zM638 607q20 199 42 392q-119 -6 -205 -87 q-78 -73 -118 -189q-38 -109 -38 -216q0 -129 75 -209q69 -75 193 -92q2 1 6 5q3 3 5 4q7 69 20.5 200t19.5 192z" />
<glyph unicode="&#xa3;" horiz-adv-x="1286" d="M183 664l12 102q62 -2 93 -2q15 0 46 -1t47 -1q5 40 13 120q12 141 26 214q18 102 63 181q22 41 59 78q65 60 172 93q86 26 188 26q121 0 256 -39l-15 -76q-6 -27 -16 -83q-125 61 -233 61q-60 0 -122 -20q-64 -20 -109 -65q-45 -56 -64 -133q-15 -60 -24 -145 q-10 -72 -13 -107l-12 -108q186 -5 366 -6q-4 -34 -5 -50l-6 -50q-31 1 -92 2t-91 2l-183 3q-9 -73 -25 -219l-27 -219q312 -2 538 -27q-3 -34 -5 -100l-3 -99q-268 34 -548 34q-206 0 -423 -20q12 53 38 202q38 3 228 10q34 239 57 440q-60 0 -186 2zM1159 1442q1 -4 4 -8 l-5 1q0 2 0.5 4t0.5 3z" />
<glyph unicode="&#xa4;" horiz-adv-x="1470" d="M1018 973h-5q-2 -1 -6 -1q-100 67 -219 67q-129 0 -233 -74q-68 74 -98 106q-15 15 -31 32.5t-36 38.5t-31 33q-17 -15 -48 -46q-20 -22 -49 -47q32 -36 96 -106t96 -106q-92 -123 -92 -258q0 -96 49 -204q-149 -139 -228 -210q13 -15 39 -47q18 -25 39 -48l117 105 q38 35 116 105q113 -71 225 -71q119 0 232 75q73 -78 199 -210q23 20 48 47q38 38 47 46q-78 80 -195 212q94 121 94 266q0 105 -47 197q38 36 114 106q41 36 115 105l-39 48q-6 7 -19.5 22.5t-20.5 23.5q-37 -32 -229 -207zM1015 642q-8 -111 -90 -188q-83 -80 -192 -80 q-103 0 -173 67q-71 68 -71 172q0 120 84 206q84 87 200 87q103 0 173 -65q70 -67 70 -170v-15q0 -9 -1 -14z" />
<glyph unicode="&#xa5;" horiz-adv-x="1481" d="M1025 795h306q1 17 5 51q4 31 5 50q-86 -2 -127 -2l-128 -3q227 365 386 593q-111 -12 -189 -17q-185 -277 -436 -697q-176 412 -314 696q-69 3 -185 18q148 -307 269 -593q-111 0 -253 5q-2 -17 -4 -51t-4 -51q102 -2 153 -2h153q21 -40 45 -78q30 -52 44 -78l-3 -31 q-1 -11 -3 -31q-172 0 -392 -5q-7 -78 -16 -141q239 9 396 9q-11 -67 -33.5 -200t-34.5 -200q47 0 70 1h69h51q34 0 51 -1q0 187 8 400q259 -2 390 -9q0 11 1.5 35t2.5 36t2.5 36t1.5 35q-172 4 -389 4l5 62q32 52 49 78q29 45 48 81z" />
<glyph unicode="&#xa6;" horiz-adv-x="671" d="M485 1422q-33 -36 -80 -36q-46 0 -70 36q-29 -369 -60 -738q23 -8 64 -8q32 0 76 7q52 557 70 739zM390 398q-27 4 -60 4q-44 0 -80 -4q-33 -369 -69 -738q32 32 78 32q48 0 72 -32q33 433 59 738z" />
<glyph unicode="&#xa7;" horiz-adv-x="1107" d="M485 369q-140 82 -190 127q-96 86 -96 198q0 97 56 178q53 77 147 119q-49 40 -78 96t-29 118t25 115q26 56 80 90q57 39 134 55q56 12 141 12q143 0 278 -36l-8 -66q-3 -21 -11 -74q-158 55 -275 55q-76 0 -136 -36q-70 -44 -70 -116q9 -72 86 -140q50 -44 135 -90 q56 -36 96 -59q112 -69 162 -155q27 -48 27 -110q0 -95 -58 -177q-53 -75 -146 -121q106 -99 106 -211q0 -67 -23 -123q-27 -64 -83 -100q-50 -38 -135 -58q-57 -13 -145 -13q-119 0 -291 34q8 64 13 95q8 62 11 94q154 -55 269 -55q82 0 136 16q44 12 68 45t24 71 q-10 69 -86 134q-39 32 -134 88zM959 1440l-6 1q0 2 0.5 4t0.5 3v-1zM483 955h-10q-61 -41 -94 -84q-43 -55 -43 -114q0 -69 61 -133q44 -49 138 -105q10 -6 76 -46l71 -42q58 38 96 83q47 54 47 112q0 97 -120 191q-49 38 -112 74q-86 49 -110 64z" />
<glyph unicode="&#xa8;" horiz-adv-x="942" d="M363 1558q11 -33 11 -76q0 -65 -29 -122l100 3q66 0 99 1q16 74 16 151v20q0 12 -1 19q-16 0 -48.5 0.5t-48.5 1.5q-33 0 -99 2zM782 1554q-18 -79 -18 -144v-23q0 -9 2 -23q66 -2 99 -2q32 0 98 -2q-13 33 -13 75q0 65 31 123q-66 -2 -99 -2q-32 0 -100 -2z" />
<glyph unicode="&#xa9;" horiz-adv-x="1684" d="M1428 1247q143 -162 143 -421q0 -169 -55 -315q-63 -166 -179 -273q-104 -102 -246 -153q-132 -47 -280 -47q-142 0 -261 49q-130 53 -212 149q-144 166 -144 423q0 165 54 314q60 165 179 273q99 99 242 152q133 48 277 48t266 -47q130 -52 216 -152zM1448 548 q46 121 46 268q0 226 -130 372q-75 88 -190 134q-108 43 -236 43q-125 0 -243 -44q-120 -45 -214 -134q-102 -92 -159 -235q-53 -130 -53 -273q0 -223 139 -356q176 -128 427 -128q249 0 450 129q109 80 163 224zM775 1139q80 24 176 24q122 0 241 -47q-6 -55 -8 -74 q-113 54 -239 54q-144 0 -233 -101q-49 -56 -75.5 -129t-26.5 -146q0 -117 93 -187q84 -64 205 -64q105 0 227 55q-1 -27 -5 -79q-5 -41 -6 -80q-115 -48 -261 -48q-89 0 -165 25q-84 28 -137 86q-88 95 -88 255q0 102 32 197q36 104 110 171q67 60 160 88zM1197 1114l-5 2 q0 1 0.5 3t0.5 3z" />
<glyph unicode="&#xaa;" horiz-adv-x="1051" d="M765 735l62 -3q40 -2 60 -4q9 178 35 437q5 42 5 76q0 122 -68 189q-47 35 -113 50q-51 10 -126 10q-146 0 -279 -39q-1 -17 -1 -52q0 -18 -2 -52q144 50 253 51q90 -2 138 -24q79 -38 79 -131v-13q0 -9 -1 -13l-1 -13q-81 -4 -183 -4q-162 0 -266 -62q-53 -31 -80 -99 q-23 -57 -23 -122q0 -102 67 -153q59 -46 158 -46q87 0 164 37q78 37 131 109zM664 1171q19 0 40.5 0.5t48 1.5t40.5 1q-2 -14 -2 -19q-1 -3 -1.5 -9.5t-0.5 -9.5q-12 -113 -81 -187t-186 -74q-61 0 -104 35q-48 38 -48 94q0 77 50 116q43 33 116 43q42 6 128 8zM885 491v31 q-1 10 -1 30v15q0 10 1 15q-161 15 -324 15q-150 0 -327 -13q-6 -51 -16 -102q161 16 328 16q174 0 339 -19v12z" />
<glyph unicode="&#xab;" horiz-adv-x="1197" d="M1094 1004q-15 -12 -107.5 -84t-140.5 -110q-166 -130 -250 -195q-9 -24 -23 -53q-13 -27 -24 -54q251 -266 400 -414q15 102 39 204q-65 68 -130 139q-46 50 -130 140q37 29 165 131q45 36 164 130q21 104 37 166zM640 841l23 159q-269 -202 -474 -368q-9 -30 -22 -55 q-14 -28 -24 -55q159 -183 374 -401q13 49 30 100q20 66 29 100q-168 176 -255 271q232 183 319 249z" />
<glyph unicode="&#xac;" horiz-adv-x="1662" d="M214 853q15 -78 20 -171q476 0 1057 18q-60 -207 -60 -369q0 -9 1 -14v-14q112 -1 225 -6q-33 108 -33 233q0 160 54 322q-303 -10 -633 -10q-341 0 -631 11z" />
<glyph unicode="&#xad;" horiz-adv-x="821" d="M202 633h-35q4 -17 4 -41q0 -56 -28 -103q225 9 516 9q-6 21 -6 43q0 53 30 102q-332 -11 -447 -11q-23 0 -34 1z" />
<glyph unicode="&#xae;" horiz-adv-x="1684" d="M946 1446q-144 0 -277 -48q-143 -53 -242 -152q-119 -108 -179 -273q-54 -149 -54 -314q0 -257 144 -423q82 -96 212 -149q119 -49 261 -49q148 0 280 47q142 51 246 153q116 107 179 273q55 146 55 315q0 259 -143 421q-86 100 -216 152q-122 47 -266 47zM938 1365 q127 0 234 -38q113 -40 195 -125q131 -131 131 -348q0 -132 -55 -256.5t-155 -220.5q-92 -82 -208.5 -124t-239.5 -42q-114 0 -217 36.5t-180 103.5q-169 146 -169 382q0 136 51 254q56 129 157 214q183 164 456 164zM994 713l2 15q87 11 146 74q60 65 60 152q0 97 -79 148 q-76 41 -223 43q-132 0 -264 3q-23 -375 -68 -787q51 0 76 1t76 1h25q2 28 7.5 85t8.5 86l15 170q11 1 31 1h31q24 -5 43 -19q36 -30 65 -82l25 -45h-1q8 -15 17 -31.5t19 -36t16 -30.5q25 -48 52 -98q23 -1 71 -1q12 0 35.5 -0.5t35.5 -1.5q-36 68 -54 101q-30 55 -53 101 h1q-16 28 -23 43q-16 28 -25 41q-30 45 -68 67zM912 830h-125q8 91 13 142q8 94 11 141q42 0 63 1h63q83 -3 117 -16q68 -27 68 -103q0 -36 -12 -72q-15 -41 -46 -60q-50 -33 -152 -33z" />
<glyph unicode="&#xaf;" horiz-adv-x="894" d="M354 1516q13 -22 13 -53q0 -41 -24 -75q192 2 289 2q95 0 289 -2q-14 19 -14 52q0 42 25 76q-146 -3 -289 -3q-145 0 -289 3z" />
<glyph unicode="&#xb0;" horiz-adv-x="882" d="M606 1499q-137 0 -220 -84q-50 -45 -74 -117q-23 -63 -23 -133q0 -113 58 -179q66 -79 205 -79q134 0 218 80q49 48 74 114q24 65 24 132q0 121 -73 194q-72 72 -189 72zM601 1441q71 0 120 -41q52 -46 52 -114q0 -81 -62 -140q-58 -55 -142 -55q-74 2 -122 44 q-52 44 -52 116q0 81 64 137q61 53 142 53z" />
<glyph unicode="&#xb1;" horiz-adv-x="1638" d="M776 1248l-15 -186q-10 -124 -15 -187q-325 2 -525 11q-3 -71 -9 -149q219 -5 522 -5q-18 -202 -34 -371h141q3 34 8.5 96.5t7.5 89.5q2 28 7.5 89.5t8.5 95.5q289 0 522 4q2 25 8 75l9 74q-207 -8 -527 -10q23 240 39 373h-148zM144 181q-11 -71 -34 -171q319 24 638 24 q314 0 624 -24q-5 76 -7 171q-300 18 -602 18q-279 0 -619 -18z" />
<glyph unicode="&#xb2;" horiz-adv-x="965" d="M438 783q-1 8 -5 17q62 50 93 74q19 17 57 49t46 39q55 46 101 93q109 112 141 224q3 17 3 33q0 98 -94 146q-71 35 -183 35q-120 0 -255 -37q-2 -34 -1 -50q0 -17 -2 -51q136 52 244 52q64 0 111 -34q52 -39 52 -97v-9q0 -7 -1 -10q-26 -60 -68 -114q-71 -89 -194 -191 q-53 -44 -102 -90q-25 -20 -51 -42l-51 -45q-3 -16 -7 -48l-9 -49q144 16 294 16q146 0 284 -16q-1 15 -1 47v48q-121 12 -271 12h-65q-22 0 -66 -2z" />
<glyph unicode="&#xb3;" horiz-adv-x="925" d="M690 1109v20q74 12 125 68q50 56 50 131q0 93 -94 135q-70 31 -181 31q-87 0 -245 -21v-13q0 -26 -1 -39t-1 -40q130 26 218 26q70 0 117 -21q60 -27 60 -85q0 -71 -61 -112q-51 -34 -126 -34q-11 0 -17 1h-17h-62l-3 -42q-4 -31 -5 -43h73q3 1 11 1h12q73 0 123 -33 q58 -38 58 -102q0 -88 -76 -135q-62 -37 -156 -37q-148 0 -227 34q-3 -16 -7 -48q-2 -17 -8 -49q123 -24 236 -24q78 2 138 13q71 12 140 53q44 29 66 85q18 48 18 103q0 68 -45 119q-47 51 -113 58z" />
<glyph unicode="&#xb4;" horiz-adv-x="741" d="M625 1620q-78 -89 -164 -196q-80 -101 -167 -194q70 4 145 6q75 72 190 197q116 126 190 195q-81 -6 -194 -8z" />
<glyph unicode="&#xb5;" horiz-adv-x="1505" d="M268 1110v-92q0 -743 -115 -1432q73 9 164 14q33 245 57 537l17 4q25 -69 94 -109q62 -37 143 -37h24q82 0 163 47q74 43 125 119q2 -63 36 -115q37 -56 99 -56q23 0 45 9q38 14 89 48q38 23 44 26q1 11 2 32t2 31q1 11 2 32t2 31q-4 -1 -13 -5t-14 -5q-14 -6 -27 -6 q-41 0 -72 17q-39 20 -39 55v5q45 463 107 833q-28 -1 -82 -5q-28 -2 -82 -4q-28 -170 -58 -421q-10 -77 -30.5 -136.5t-66.5 -113.5q-82 -82 -215 -82q-67 0 -112 15q-59 20 -97 67q-46 64 -46 173q0 14 2 40q10 206 12 476q-14 1 -40.5 2.5t-39.5 1.5q-52 2 -80 4z" />
<glyph unicode="&#xb6;" horiz-adv-x="1550" d="M738 1450q-213 2 -340 -95q-72 -55 -104 -144q-28 -77 -28 -172q0 -160 89 -259q92 -104 202 -124q-87 -512 -156 -820q118 8 304 8q46 582 132 1505q114 0 206 4q-99 -787 -138 -1513q167 -4 337 -27q-76 579 -76 1383q0 87 2 265q-170 -12 -337 -12h-46q-32 0 -47 1z " />
<glyph unicode="&#xb7;" horiz-adv-x="520" d="M208 828q0 -123 -21 -234q43 4 97 4q52 0 95 -4q0 130 21 234q-41 -5 -97 -5t-95 5z" />
<glyph unicode="&#xb8;" horiz-adv-x="668" d="M112 -279h-13q-77 0 -121 23q-3 -18 -7 -54q-6 -36 -10 -53q72 -15 147 -15q108 0 169 29q37 16 57 62q18 41 18 82q0 84 -74 190q-62 -2 -94 -2q21 -36 29.5 -51.5t19 -47t10.5 -59.5q0 -46 -37 -76q-35 -29 -82 -29q-9 0 -12 1z" />
<glyph unicode="&#xb9;" horiz-adv-x="947" d="M625 1478h-62q-122 -18 -221 -22q0 -32 -1 -48t-1 -48q61 4 217 28q-20 -270 -53 -608q-166 -7 -200 -11q-1 -11 -14 -89q126 13 257 13q138 0 276 -15q-1 7 -1 19v19v27q0 17 1 26q-79 8 -198 10q24 351 63 700q-11 -1 -31 -1h-32z" />
<glyph unicode="&#xba;" horiz-adv-x="1075" d="M664 1490q-82 0 -149 -21q-80 -25 -131 -76q-62 -62 -88 -156q-22 -80 -22 -175q0 -160 69 -245q80 -98 246 -98q84 0 146 21q79 25 128 78q65 65 98 177q25 86 25 193q0 132 -63 206q-46 55 -116 77q-61 19 -143 19zM658 1433h8q89 0 145 -54q55 -57 55 -148 q0 -118 -65 -203q-73 -93 -187 -93q-98 0 -153 63q-55 60 -55 160q0 62 16 111q20 61 60 98q65 66 176 66zM258 585q-6 -34 -8 -51l-9 -51q168 15 336 15q160 0 333 -14v17q-1 6 -1 17q0 23 1 34v34q-168 11 -320 11q-166 0 -332 -12z" />
<glyph unicode="&#xbb;" horiz-adv-x="1233" d="M257 1058q-2 -55 -1 -82q0 -35 -5 -82q86 -96 129 -143q63 -72 129 -144q-176 -134 -326 -254q-6 -138 -13 -207l249 189q82 62 248 188l-9 56q-6 36 -9 55q-268 292 -392 424zM688 1020q-8 -41 -12 -79l-12 -80q43 -45 125 -137t124 -138q-159 -124 -321 -246 q1 -17 2.5 -50.5t1.5 -49.5t1.5 -50t2.5 -51q261 192 471 359q-6 25 -10 58l-9 57q-115 130 -180 205q-90 103 -184 202z" />
<glyph unicode="&#xbc;" horiz-adv-x="1753" d="M625 1478h32q20 0 31 1q-39 -349 -63 -700q119 -2 198 -10q-1 -9 -1 -26v-13l6 9q355 526 526 758q103 9 138 14q-195 -264 -528 -758q-353 -523 -525 -759q-47 -4 -68 -5q-20 -2 -68 -8q171 235 486 700q-122 12 -242 12q-131 0 -257 -13q13 78 14 89q34 4 200 11 q33 338 53 608q-156 -24 -217 -28q0 32 1 48t1 48q99 4 221 22h62zM1283 206h-81q-147 0 -315 -8q4 36 14 108q208 268 411 506q13 0 38 1t38 1l76 3q-36 -225 -58 -527q21 -1 64 -1q21 0 63 -2q-2 -30 -2 -44l-3 -44q-44 3 -127 5q-6 -91 -6 -182q-55 4 -124 4q1 45 6 90z M1203 291h86q21 255 42 443q-103 -120 -183 -221q-65 -82 -180 -224q158 2 235 2z" />
<glyph unicode="&#xbd;" horiz-adv-x="2070" d="M625 1478h32q20 0 31 1q-39 -349 -63 -700q119 -2 198 -10q-1 -9 -1 -26v-13l6 9q355 526 526 758q103 9 138 14q-195 -264 -528 -758q-353 -523 -525 -759q-47 -4 -68 -5q-20 -2 -68 -8q171 235 486 700q-122 12 -242 12q-131 0 -257 -13q13 78 14 89q34 4 200 11 q33 338 53 608q-156 -24 -217 -28q0 32 1 48t1 48q99 4 221 22h62zM1593 296q-8 -7 -46 -39t-57 -49q-31 -24 -93 -74q4 -9 5 -17q44 2 66 2h65q150 0 271 -12v-48q0 -32 1 -47q-138 16 -284 16q-150 0 -294 -16l9 49q4 32 7 48l51 45q26 22 51 42q49 46 102 90 q123 102 194 191q42 54 68 114q1 3 1 10v9q0 58 -52 97q-47 34 -111 34q-108 0 -244 -52q2 34 2 51q-1 16 1 50q135 37 255 37q112 0 183 -35q94 -48 94 -146q0 -16 -3 -33q-32 -112 -141 -224q-46 -47 -101 -93z" />
<glyph unicode="&#xbe;" horiz-adv-x="1719" d="M1320 1497q-171 -232 -526 -758q-344 -510 -525 -758q48 6 68 8q21 1 68 5q172 236 525 759q333 494 528 758q-35 -5 -138 -14zM690 1109v20q74 12 125 68q50 56 50 131q0 93 -94 135q-70 31 -181 31q-87 0 -245 -21v-13q0 -26 -1 -39t-1 -40q130 26 218 26q70 0 117 -21 q60 -27 60 -85q0 -71 -61 -112q-51 -34 -126 -34q-11 0 -17 1h-17h-62l-3 -42q-4 -31 -5 -43h73q3 1 11 1h12q73 0 123 -33q58 -38 58 -102q0 -88 -76 -135q-62 -37 -156 -37q-148 0 -227 34q-3 -16 -7 -48q-2 -17 -8 -49q123 -24 236 -24q78 2 138 13q71 12 140 53 q44 29 66 85q18 48 18 103q0 68 -45 119q-47 51 -113 58zM1249 206l-6 -90q-5 -45 -6 -90q69 0 124 -4q0 90 6 182q83 -2 127 -5l3 44q0 14 2 44q-42 2 -63 2q-43 0 -64 1q22 302 58 527l-76 -3q-13 0 -38 -1t-38 -1q-203 -238 -411 -506q-10 -72 -14 -108q168 8 315 8h81z M1255 291h-86q-77 0 -235 -2q115 142 180 224q80 101 183 221q-21 -188 -42 -443z" />
<glyph unicode="&#xbf;" horiz-adv-x="1082" d="M692 1229q8 76 26 228q-61 -4 -183 -4q-2 -20 -5.5 -57.5t-4.5 -55.5l-9 -114q116 0 176 3zM508 1066l-10 -109q-3 -22 -7 -66q-7 -79 -60 -132q-50 -51 -157 -150q-48 -45 -88 -96q-87 -114 -87 -239q0 -143 116 -210q91 -55 241 -55q201 0 378 82q0 18 2 56t2 56 q2 74 5 111q-187 -108 -337 -108q-92 0 -152 40q-72 48 -72 134q0 63 39 123q30 47 88 98q50 44 71 63.5t57 58t58 73.5q24 41 34 131l12 140q-22 -1 -66 -1h-67z" />
<glyph unicode="&#xc0;" d="M674 1784q-94 0 -160 5q53 -61 97 -119q47 -62 96 -120q11 0 32.5 -1t31.5 -1l64 -3q-41 48 -83 118q-50 82 -78 121zM919 1454h-175q-88 -182 -171 -363q-74 -161 -170 -365q-210 -443 -369 -716q123 10 251 18q68 140 109 240q148 4 332 4q183 0 332 -4 q23 -124 51 -239q111 -5 265 -19q-71 168 -133 354q-100 298 -217 725q-53 191 -105 365zM817 1314q49 -199 99 -416q53 -232 100 -417q-91 0 -136 1h-136q-88 0 -272 -2q98 232 173 417q93 232 172 417z" />
<glyph unicode="&#xc1;" d="M948 1784q-56 -66 -99 -121q-48 -62 -103 -118l64 3q22 0 64 2q57 55 116 121q53 58 117 118q-66 -5 -159 -5zM919 1454h-175q-88 -182 -171 -363q-74 -161 -170 -365q-210 -443 -369 -716q123 10 251 18q68 140 109 240q148 4 332 4q183 0 332 -4q23 -124 51 -239 q111 -5 265 -19q-71 168 -133 354q-100 298 -217 725q-53 191 -105 365zM817 1314q49 -199 99 -416q53 -232 100 -417q-91 0 -136 1h-136q-88 0 -272 -2q98 232 173 417q93 232 172 417z" />
<glyph unicode="&#xc2;" d="M940 1806h-178q-19 -23 -53.5 -65t-49.5 -60q-51 -62 -113 -116q9 1 28 1t29 1q18 1 56 1q49 41 186 178q50 -60 75 -91q35 -45 80 -87q38 0 57 -1q9 -1 28 -1t29 -1q-54 52 -94 115zM919 1454h-175q-88 -182 -171 -363q-74 -161 -170 -365q-210 -443 -369 -716 q123 10 251 18q68 140 109 240q148 4 332 4q183 0 332 -4q23 -124 51 -239q111 -5 265 -19q-71 168 -133 354q-100 298 -217 725q-53 191 -105 365zM817 1314q49 -199 99 -416q53 -232 100 -417q-91 0 -136 1h-136q-88 0 -272 -2q98 232 173 417q93 232 172 417z" />
<glyph unicode="&#xc3;" d="M790 1773h17q11 0 21.5 -1t22.5 -4.5t19.5 -5t21 -7.5t18.5 -8t20.5 -10.5t18 -10t19.5 -11.5t18 -11q44 -25 71 -25q17 -13 46 16q20 20 39 56q5 10 7 20l-1 3q34 2 51 2q38 0 57 1l-31 -64q-36 -79 -86 -113q-29 -20 -68 -20q-65 0 -145 41q-16 8 -29 18q-33 23 -59 33 q-16 6 -34 6q-37 0 -63 -35q-19 -24 -34 -68q0 5 -30 4q-40 -2 -70 -2l27 64q34 91 88 116q33 16 68 16zM1148 1774h-6q6 3 6 0zM744 1454h175q52 -174 105 -365q117 -427 217 -725q62 -186 133 -354q-154 14 -265 19q-28 115 -51 239q-149 4 -332 4q-184 0 -332 -4 q-41 -100 -109 -240q-128 -8 -251 -18q159 273 369 716q96 204 170 365q83 181 171 363zM744 482h136q45 -1 136 -1q-47 185 -100 417q-50 217 -99 416q-79 -185 -172 -417q-75 -185 -173 -417q184 2 272 2z" />
<glyph unicode="&#xc4;" d="M684 1761q11 -38 11 -71q0 -63 -27 -113q62 2 91 2q60 0 91 1q16 70 16 144v17q-1 5 -1 16q-15 0 -45 0.5t-45 1.5q-29 0 -91 2zM1074 1757q-17 -70 -17 -133q0 -14 2 -44q31 -1 92 -1q29 0 91 -2q-12 33 -12 70q0 59 28 114q-62 -2 -92 -2q-16 -1 -46 -1t-46 -1z M919 1454h-175q-88 -182 -171 -363q-74 -161 -170 -365q-210 -443 -369 -716q123 10 251 18q68 140 109 240q148 4 332 4q183 0 332 -4q23 -124 51 -239q111 -5 265 -19q-71 168 -133 354q-100 298 -217 725q-53 191 -105 365zM817 1314q49 -199 99 -416q53 -232 100 -417 q-91 0 -136 1h-136q-88 0 -272 -2q98 232 173 417q93 232 172 417z" />
<glyph unicode="&#xc5;" d="M690 1380q-53 -115 -157 -345l-159 -344q-183 -387 -340 -681q35 4 97 10q16 2 48 4.5t48 3.5q62 123 182 381q205 5 367 5q163 0 292 -4q47 -168 119 -381l94 -9q15 -1 46 -5t47 -5q-57 150 -118 337q-91 284 -203 687q-73 263 -97 346q67 42 105 110q39 70 39 142 q0 92 -66 158q-66 64 -161 64q-120 0 -203 -77q-85 -80 -85 -197q0 -60 28.5 -113.5t76.5 -86.5zM999 1598q-6 -63 -56 -110t-111 -47t-105 42q-43 41 -43 102q0 71 52 120q51 48 120 48q61 0 102 -38q42 -40 42 -100v-8q0 -6 -1 -9zM817 1304q53 -189 102 -375 q55 -208 103 -375q-168 2 -252 2q-146 0 -291 -3q97 208 170 375q74 169 168 376z" />
<glyph unicode="&#xc6;" horiz-adv-x="2132" d="M1821 702h-665q45 478 60 607q405 5 724 22q15 70 36 152q-421 -29 -911 -29h-145q-48 0 -144 2l-171 -367q-100 -215 -175 -367q-204 -415 -396 -712q176 12 350 18q14 86 19 129l15 128q313 7 529 7q-2 -22 -5.5 -64.5t-4.5 -62.5q-8 -84 -11 -127q523 0 940 -28 q-11 94 -16 241q-364 17 -729 18q8 101 11 145q3 48 11 144q388 0 668 -5q1 25 5 75q4 47 5 74zM895 1321q23 -1 71 -1h71q-44 -526 -77 -886q-256 0 -460 -4q115 237 202 444q63 149 193 447z" />
<glyph unicode="&#xc7;" horiz-adv-x="1522" d="M510 -180h13q3 -1 12 -1q47 0 82 29q37 30 37 76q0 48 -31 108q-35 8 -65 18q-148 46 -236 147q-67 85 -97 202q-27 99 -27 229q0 194 43 346q54 196 175 316q105 105 265 153q132 38 297 38q114 0 220 -25q108 -26 193 -85q-13 -68 -30 -184q-74 74 -176.5 113 t-215.5 39q-120 0 -219 -29q-116 -34 -195 -113q-96 -105 -139 -256q-36 -127 -36 -271q0 -92 20 -157q25 -81 80 -129q66 -55 183 -81q80 -18 205 -18q117 0 222 41q112 42 198 118q-8 -155 -8 -290v-33q-182 -112 -438 -112q-56 0 -111 6q32 -64 32 -121q0 -42 -18 -82 q-20 -46 -57 -62q-61 -29 -169 -29q-75 0 -147 15q4 17 10 53q4 36 7 54q44 -23 121 -23zM1392 1377l2 -8q0 1 -1 1t-2 1z" />
<glyph unicode="&#xc8;" horiz-adv-x="1494" d="M573 1784q-94 0 -160 5q53 -61 97 -119q46 -62 96 -120q11 0 32.5 -1t31.5 -1l64 -3q-41 48 -83 118q-50 82 -78 121zM415 1484q-8 -762 -129 -1474q236 28 477 28q240 0 465 -28q0 194 5 291q-211 17 -446 17q-140 0 -281 -6q26 236 41 409q223 0 334 1h333q1 13 3 37 t3 37q2 22 8 74q-235 -5 -419 -5q-82 0 -250 2q22 276 30 450q144 -9 290 -9q222 0 435 22q5 40 12 76q4 21 13 76q-240 -29 -467 -29q-234 0 -457 31z" />
<glyph unicode="&#xc9;" horiz-adv-x="1427" d="M680 1784q-56 -66 -99 -121q-48 -62 -103 -118l64 3q22 0 64 2q57 55 116 121q53 58 117 118q-66 -5 -159 -5zM348 1484q-8 -762 -129 -1474q236 28 477 28q240 0 465 -28q0 194 5 291q-211 17 -446 17q-140 0 -281 -6q26 236 41 409q223 0 334 1h333q1 13 3 37t3 37 q2 22 8 74q-235 -5 -419 -5q-82 0 -250 2q22 276 30 450q144 -9 290 -9q222 0 435 22q5 40 12 76q4 21 13 76q-240 -29 -467 -29q-234 0 -457 31z" />
<glyph unicode="&#xca;" horiz-adv-x="1427" d="M818 1786h-178q-19 -23 -53.5 -65t-49.5 -60q-51 -62 -113 -116q9 1 28 1t29 1q18 1 56 1q49 41 186 178q50 -60 75 -91q35 -45 80 -87q38 0 57 -1q9 -1 28 -1t29 -1q-54 52 -94 115zM348 1484q-8 -762 -129 -1474q236 28 477 28q240 0 465 -28q0 194 5 291 q-211 17 -446 17q-140 0 -281 -6q26 236 41 409q223 0 334 1h333q1 13 3 37t3 37q2 22 8 74q-235 -5 -419 -5q-82 0 -250 2q22 276 30 450q144 -9 290 -9q222 0 435 22q5 40 12 76q4 21 13 76q-240 -29 -467 -29q-234 0 -457 31z" />
<glyph unicode="&#xcb;" horiz-adv-x="1427" d="M517 1761q11 -38 11 -71q0 -63 -27 -113q62 2 91 2q60 0 91 1q16 70 16 144v17q-1 5 -1 16q-15 0 -45 0.5t-45 1.5q-29 0 -91 2zM907 1757q-17 -70 -17 -133q0 -14 2 -44q31 -1 92 -1q29 0 91 -2q-12 33 -12 70q0 59 28 114q-62 -2 -92 -2q-15 -1 -46 -1t-46 -1z M348 1484q-8 -762 -129 -1474q236 28 477 28q240 0 465 -28q0 194 5 291q-211 17 -446 17q-140 0 -281 -6q26 236 41 409q223 0 334 1h333q1 13 3 37t3 37q2 22 8 74q-235 -5 -419 -5q-82 0 -250 2q22 276 30 450q144 -9 290 -9q222 0 435 22q5 40 12 76q4 21 13 76 q-240 -29 -467 -29q-234 0 -457 31z" />
<glyph unicode="&#xcc;" horiz-adv-x="1052" d="M573 1784q-94 0 -160 5q53 -61 97 -119q46 -62 96 -120q11 0 32.5 -1t31.5 -1l64 -3q-41 48 -83 118q-50 82 -78 121zM722 1468q-88 -912 -158 -1458q55 28 115 28t107 -28q37 670 108 1464q-41 -20 -94 -20q-39 0 -78 14z" />
<glyph unicode="&#xcd;" horiz-adv-x="889" d="M584 1884q-56 -66 -99 -121q-48 -62 -103 -118l64 3q22 0 64 2q57 55 116 121q53 58 117 118q-66 -5 -159 -5zM559 1468q-88 -912 -158 -1458q55 28 115 28t107 -28q37 670 108 1464q-41 -20 -94 -20q-39 0 -78 14z" />
<glyph unicode="&#xce;" horiz-adv-x="1022" d="M871 1786h-178q-19 -23 -53.5 -65t-49.5 -60q-51 -62 -113 -116q10 1 29 1t28 1q18 1 56 1q49 41 186 178q50 -60 75 -91q35 -45 80 -87q38 0 57 -1q10 -1 29 -1t28 -1q-54 52 -94 115zM692 1468q-88 -912 -158 -1458q55 28 115 28t107 -28q37 670 108 1464 q-41 -20 -94 -20q-39 0 -78 14z" />
<glyph unicode="&#xcf;" horiz-adv-x="898" d="M407 1761q11 -38 11 -71q0 -63 -27 -113q62 2 91 2q60 0 91 1q16 70 16 144v17q-1 5 -1 16q-15 0 -45 0.5t-45 1.5q-29 0 -91 2zM797 1757q-17 -70 -17 -133q0 -14 2 -44q31 -1 92 -1q29 0 91 -2q-12 33 -12 70q0 59 28 114q-62 -2 -92 -2q-15 -1 -45.5 -1t-46.5 -1z M545 1468q-88 -912 -158 -1458q55 28 115 28t107 -28q37 670 108 1464q-41 -20 -94 -20q-39 0 -78 14z" />
<glyph unicode="&#xd0;" horiz-adv-x="1671" d="M201 710h186q-35 -380 -92 -686q254 13 409 13q206 6 324 30q181 37 301 132q91 80 145 210q46 112 66 250q14 107 14 233t-25 217q-32 113 -101 184q-108 98 -280 133q-109 22 -320 28q-292 6 -407 14q0 -354 -25 -637q-62 0 -93 1q-16 0 -47 1t-46 1q-2 -40 -4 -62 q-4 -43 -5 -62zM885 830h-316q15 166 31 486q82 -2 123 -2q20 -1 61 -1.5t62 -0.5q140 -2 233 -25q127 -34 197 -108q96 -107 96 -318q0 -159 -30 -283q-43 -170 -143 -265q-86 -77 -215 -108q-94 -24 -237 -26q-164 -2 -248 -5q32 237 60 536q53 1 158 1h158z" />
<glyph unicode="&#xd1;" horiz-adv-x="1568" d="M709 1773h17q11 0 21.5 -1t22.5 -4.5t19.5 -5t21 -7.5t18.5 -8t20.5 -10.5t18 -10t19.5 -11.5t18 -11q44 -25 71 -25q17 -13 46 16q20 20 39 56q5 10 7 20l-1 3q34 2 51 2q38 0 57 1l-31 -64q-36 -79 -86 -113q-29 -20 -68 -20q-65 0 -145 41q-16 8 -29 18q-33 23 -59 33 q-17 6 -34 6q-37 0 -63 -35q-19 -24 -34 -68q0 5 -30 4q-40 -2 -70 -2l27 64q34 91 88 116q33 16 68 16zM1067 1774h-6q6 3 6 0zM483 1243l-16 -4q0 -594 -59 -1210q-153 -10 -236 -19q148 689 168 1439q53 -7 116 -10q20 -1 59 -3.5t58 -4.5q101 -200 273 -585 q190 -431 266 -588q46 649 152 1211q110 8 167 15q-130 -701 -130 -1357v-58q0 -40 1 -59q-109 13 -274 22q-109 217 -276 604l-132 305q-63 144 -137 302z" />
<glyph unicode="&#xd2;" horiz-adv-x="1598" d="M730 1884q-94 0 -160 5q53 -61 97 -119q47 -62 96 -120q10 0 31.5 -1t32.5 -1l64 -3q-41 48 -83 118q-50 82 -78 121zM908 1480q-147 0 -267 -42q-142 -50 -233 -149q-118 -123 -170 -324q-40 -155 -40 -350q0 -121 24 -221q26 -107 91 -195q74 -96 200 -145 q114 -44 251 -44q149 0 273 41q141 47 236 149q115 132 167 324q44 162 44 350q0 120 -24 220q-27 111 -90 196q-72 100 -203 149q-111 41 -259 41zM1149 435v1q-132 -75 -341 -75q-101 0 -172 14q-96 19 -158 59q-53 34 -78 104q-19 53 -19 135q0 138 34 264 q40 146 122 245q62 79 163 121q88 37 195 37q101 0 187.5 -40t139.5 -117q80 -131 80 -337q0 -131 -23 -218q-37 -137 -130 -193z" />
<glyph unicode="&#xd3;" horiz-adv-x="1598" d="M804 1884q-56 -66 -99 -121q-48 -62 -103 -118l64 3q22 0 64 2q57 55 116 121q53 58 117 118q-66 -5 -159 -5zM908 1480q-147 0 -267 -42q-142 -50 -233 -149q-118 -123 -170 -324q-40 -155 -40 -350q0 -121 24 -221q26 -107 91 -195q74 -96 200 -145q114 -44 251 -44 q149 0 273 41q141 47 236 149q115 132 167 324q44 162 44 350q0 120 -24 220q-27 111 -90 196q-72 100 -203 149q-111 41 -259 41zM1149 435v1q-132 -75 -341 -75q-101 0 -172 14q-96 19 -158 59q-53 34 -78 104q-19 53 -19 135q0 138 34 264q40 146 122 245q62 79 163 121 q88 37 195 37q101 0 187.5 -40t139.5 -117q80 -131 80 -337q0 -131 -23 -218q-37 -137 -130 -193z" />
<glyph unicode="&#xd4;" horiz-adv-x="1598" d="M942 1786h-178q-19 -23 -53.5 -65t-49.5 -60q-51 -62 -113 -116q10 1 29 1t28 1q18 1 56 1q49 41 186 178q50 -60 75 -91q35 -45 80 -87q38 0 57 -1q9 -1 28 -1t29 -1q-54 52 -94 115zM908 1480q-147 0 -267 -42q-142 -50 -233 -149q-118 -123 -170 -324 q-40 -155 -40 -350q0 -121 24 -221q26 -107 91 -195q74 -96 200 -145q114 -44 251 -44q149 0 273 41q141 47 236 149q115 132 167 324q44 162 44 350q0 120 -24 220q-27 111 -90 196q-72 100 -203 149q-111 41 -259 41zM1149 435v1q-132 -75 -341 -75q-101 0 -172 14 q-96 19 -158 59q-53 34 -78 104q-19 53 -19 135q0 138 34 264q40 146 122 245q62 79 163 121q88 37 195 37q101 0 187.5 -40t139.5 -117q80 -131 80 -337q0 -131 -23 -218q-37 -137 -130 -193z" />
<glyph unicode="&#xd5;" horiz-adv-x="1598" d="M846 1773h17q11 0 21.5 -1t22.5 -4.5t19.5 -5t21 -7.5t18.5 -8t20.5 -10.5t18 -10t19.5 -11.5t18 -11q44 -25 71 -25q17 -13 46 16q20 20 39 56q5 10 7 20l-1 3q34 2 51 2q38 0 57 1l-31 -64q-36 -79 -86 -113q-29 -20 -68 -20q-65 0 -145 41q-16 8 -29 18q-33 23 -59 33 q-17 6 -34 6q-37 0 -63 -35q-19 -24 -34 -68q0 5 -30 4q-40 -2 -70 -2l27 64q34 91 88 116q33 16 68 16zM1204 1774h-6q6 3 6 0zM1460 1094q24 -100 24 -220q0 -188 -44 -350q-52 -192 -167 -324q-95 -102 -236 -149q-124 -41 -273 -41q-137 0 -251 44q-126 49 -200 145 q-65 88 -91 195q-24 100 -24 221q0 195 40 350q52 201 170 324q91 99 233 149q120 42 267 42q148 0 259 -41q131 -49 203 -149q63 -85 90 -196zM1149 436v-1q93 56 130 193q23 87 23 218q0 206 -80 337q-53 77 -139.5 117t-187.5 40q-107 0 -195 -37q-101 -42 -163 -121 q-82 -99 -122 -245q-34 -126 -34 -264q0 -82 19 -135q25 -70 78 -104q62 -40 158 -59q71 -14 172 -14q209 0 341 75z" />
<glyph unicode="&#xd6;" horiz-adv-x="1598" d="M640 1761q11 -38 11 -71q0 -63 -27 -113q62 2 91 2q60 0 91 1q16 70 16 144v17q-1 5 -1 16q-15 0 -45 0.5t-45 1.5q-29 0 -91 2zM1030 1757q-17 -70 -17 -133q0 -14 2 -44q31 -1 92 -1q29 0 91 -2q-12 33 -12 70q0 59 28 114q-62 -2 -92 -2q-15 -1 -45.5 -1t-46.5 -1z M908 1480q-147 0 -267 -42q-142 -50 -233 -149q-118 -123 -170 -324q-40 -155 -40 -350q0 -121 24 -221q26 -107 91 -195q74 -96 200 -145q114 -44 251 -44q149 0 273 41q141 47 236 149q115 132 167 324q44 162 44 350q0 120 -24 220q-27 111 -90 196q-72 100 -203 149 q-111 41 -259 41zM1149 435v1q-132 -75 -341 -75q-101 0 -172 14q-96 19 -158 59q-53 34 -78 104q-19 53 -19 135q0 138 34 264q40 146 122 245q62 79 163 121q88 37 195 37q101 0 187.5 -40t139.5 -117q80 -131 80 -337q0 -131 -23 -218q-37 -137 -130 -193z" />
<glyph unicode="&#xd7;" horiz-adv-x="1401" d="M1271 1049q-40 50 -61 74q-17 19 -62 73q-251 -223 -425 -386q-80 93 -161 179q-24 26 -51.5 55.5t-60.5 65t-52 55.5q-25 -25 -75 -73q-38 -36 -74 -74q71 -83 157 -179q53 -59 157 -179q-164 -155 -200 -187q-4 -4 -200 -188q38 -45 61 -74q25 -33 61 -74 q167 147 412 374q230 -254 349 -373q8 8 23.5 23t27.5 27.5t23 23.5l74 74q-171 186 -336 375l207 195q73 68 206 193z" />
<glyph unicode="&#xd8;" horiz-adv-x="1600" d="M293 228q-64 -70 -97 -103q-50 -52 -98 -104q23 -24 71 -70q49 49 96 99q62 66 95 99q156 -139 408 -139q148 0 270 42q141 49 235 148q113 129 167 316q46 165 46 343q0 243 -98 403q15 16 31.5 33t37 38t31.5 32q66 68 99 103q-18 17 -35 35q-19 20 -36 35 q-162 -166 -194 -201q-74 72 -190 110q-99 32 -224 32q-146 0 -268 -42q-140 -48 -232 -149q-116 -123 -168 -320q-42 -154 -42 -346q0 -240 95 -394zM1199 1207q-126 -132 -364 -388q-233 -251 -363 -389q-117 147 -117 300q0 132 36 256q39 138 119 236q63 76 157 117 q90 39 189 39q118 0 214 -41q70 -30 129 -130zM1246 1107q3 -1 8 -1h8q48 -114 48 -215q0 -37 -5 -89q-30 -126 -59 -201q-43 -111 -110 -181q-61 -57 -152 -90q-66 -25 -170 -40q-76 0 -152 3q-60 4 -124 52q160 169 355 381q155 169 353 381z" />
<glyph unicode="&#xd9;" horiz-adv-x="1516" d="M691 1884q-94 0 -160 5q53 -61 97 -119q46 -62 96 -120q10 0 32 -1t32 -1l64 -3q-41 48 -83 118q-50 82 -78 121zM347 1483v-70q0 -397 -46 -852q-7 -75 -7 -128q0 -90 19 -159q22 -81 75 -143q63 -69 180 -99q87 -23 213 -23q127 0 222 26q124 34 206 113q73 77 109 196 q28 91 37 217q39 528 116 922q-15 -1 -46 -5t-46 -5q-62 -6 -92 -7q-49 -294 -90 -740q-9 -103 -29 -178q-26 -98 -81 -164q-51 -56 -131 -81q-65 -20 -152 -20q-90 0 -149 20q-79 25 -119 81q-55 85 -55 232q0 49 5 109q36 420 42 739q-100 8 -181 19z" />
<glyph unicode="&#xda;" horiz-adv-x="1516" d="M765 1884q-56 -66 -99 -121q-48 -62 -103 -118l64 3q22 0 64 2q57 55 116 121q53 58 117 118q-66 -5 -159 -5zM347 1483v-70q0 -397 -46 -852q-7 -75 -7 -128q0 -90 19 -159q22 -81 75 -143q63 -69 180 -99q87 -23 213 -23q127 0 222 26q124 34 206 113q73 77 109 196 q28 91 37 217q39 528 116 922q-15 -1 -46 -5t-46 -5q-62 -6 -92 -7q-49 -294 -90 -740q-9 -103 -29 -178q-26 -98 -81 -164q-51 -56 -131 -81q-65 -20 -152 -20q-90 0 -149 20q-79 25 -119 81q-55 85 -55 232q0 49 5 109q36 420 42 739q-100 8 -181 19z" />
<glyph unicode="&#xdb;" horiz-adv-x="1516" d="M903 1786h-178q-19 -23 -53.5 -65t-49.5 -60q-51 -62 -113 -116q10 1 29 1t28 1q18 1 56 1q49 41 186 178q50 -60 75 -91q35 -45 80 -87q38 0 57 -1q10 -1 29 -1t28 -1q-54 52 -94 115zM347 1483v-70q0 -397 -46 -852q-7 -75 -7 -128q0 -90 19 -159q22 -81 75 -143 q63 -69 180 -99q87 -23 213 -23q127 0 222 26q124 34 206 113q73 77 109 196q28 91 37 217q39 528 116 922q-15 -1 -46 -5t-46 -5q-62 -6 -92 -7q-49 -294 -90 -740q-9 -103 -29 -178q-26 -98 -81 -164q-51 -56 -131 -81q-65 -20 -152 -20q-90 0 -149 20q-79 25 -119 81 q-55 85 -55 232q0 49 5 109q36 420 42 739q-100 8 -181 19z" />
<glyph unicode="&#xdc;" horiz-adv-x="1516" d="M601 1761q11 -38 11 -71q0 -63 -27 -113q62 2 91 2q60 0 91 1q16 70 16 144v17q-1 5 -1 16q-15 0 -45 0.5t-45 1.5q-29 0 -91 2zM991 1757q-17 -70 -17 -133q0 -14 2 -44q31 -1 92 -1q29 0 91 -2q-12 33 -12 70q0 59 28 114q-62 -2 -92 -2q-15 -1 -45.5 -1t-46.5 -1z M347 1483v-70q0 -397 -46 -852q-7 -75 -7 -128q0 -90 19 -159q22 -81 75 -143q63 -69 180 -99q87 -23 213 -23q127 0 222 26q124 34 206 113q73 77 109 196q28 91 37 217q39 528 116 922q-15 -1 -46 -5t-46 -5q-62 -6 -92 -7q-49 -294 -90 -740q-9 -103 -29 -178 q-26 -98 -81 -164q-51 -56 -131 -81q-65 -20 -152 -20q-90 0 -149 20q-79 25 -119 81q-55 85 -55 232q0 49 5 109q36 420 42 739q-100 8 -181 19z" />
<glyph unicode="&#xdd;" horiz-adv-x="1526" d="M977 1784q-56 -66 -99 -121q-48 -62 -103 -118l64 3q22 0 64 2q57 55 116 121q53 58 117 118q-66 -5 -159 -5zM348 1484q69 -147 149 -334.5t119.5 -286.5t135.5 -341q-25 -258 -49 -485q49 0 74 1h72h54q36 0 54 -1q16 291 34 486l284 486q142 243 299 475 q-114 -12 -195 -16q-179 -259 -485 -760q-217 491 -354 758q-16 1 -48 3.5t-48 4.5q-64 6 -96 10z" />
<glyph unicode="&#xde;" horiz-adv-x="1307" d="M348 1484q-8 -762 -129 -1474q42 7 92 10q27 2 91 8q22 165 42 330q21 0 63 2t63 2q84 2 126 2q110 0 189 20q105 27 180 88q76 67 110 178q29 93 29 200q0 83 -25 148q-28 74 -92 126q-64 44 -150 60q-66 12 -167 14q-170 2 -254 7q4 89 7 130q4 86 5 129q-69 3 -180 20 zM507 1063q105 -5 250 -5q108 0 177 -48q87 -61 87 -188q0 -72 -20 -131q-26 -74 -85 -123q-77 -64 -207 -64q-124 0 -250 -3q13 119 48 562z" />
<glyph unicode="&#xdf;" horiz-adv-x="1357" d="M852 536l-1 1q69 -48 97 -79q46 -53 46 -113q0 -75 -80 -106q-59 -23 -145 -23q-140 0 -280 51q-3 -36 -11 -108q-8 -56 -12 -109q134 -37 259 -41q83 0 144 10q83 14 151 49q71 38 105 123q28 70 28 157q0 63 -19 108q-35 85 -121 152q-76 60 -128 96q-25 17 -51 41 q-56 52 -56 114q0 112 114 180q88 54 210 63q4 32 4 71q0 149 -78 249q-98 93 -282 93q-101 0 -177 -17q-98 -22 -164 -76q-63 -51 -93 -133q-27 -68 -32 -158q-64 -623 -176 -1121q128 15 256 21q47 561 59 1091q29 162 101 235q70 68 207 68q114 0 177 -34q45 -38 76 -102 q20 -41 46 -121q-9 -2 -33.5 -7.5t-37.5 -8.5q-34 -7 -72 -20q-77 -27 -126 -79q-76 -90 -76 -229q0 -64 32 -125q16 -32 68 -110q39 -26 71 -53z" />
<glyph unicode="&#xe0;" horiz-adv-x="1429" d="M543 1281h32q88 0 214 -7q-33 40 -63 84q-61 89 -115 176q-38 58 -59 87q-117 2 -174 7q48 -80 87 -172q42 -98 78 -175zM881 720l-2 -28q-42 -1 -125 -1h-126q-182 0 -315 -64q-95 -46 -145 -156q-43 -95 -43 -205q0 -117 62 -185q79 -79 234 -79q131 0 234 45 q119 51 187 154l-3 -89l-3 -90q121 -7 162 -12q-1 15 -1 45v45q0 252 30 538q6 72 6 110q0 172 -84 269q-56 56 -148 79q-72 18 -175 18q-165 0 -370 -61q-2 -42 -2 -61q0 -21 -2 -63q156 73 345 73q67 -5 120 -21q59 -18 111 -61q56 -55 56 -154q0 -1 -3 -46zM771 581 l-4 -50q-3 -21 -7 -60q-6 -40 -11 -61q-17 -67 -59 -108q-38 -28 -103 -41q-42 -8 -110 -8q-77 0 -145 16q-34 7 -54 40q-18 30 -18 68q13 109 84 157q32 17 63 26q64 17 134 19q11 1 33 1t33 1h164z" />
<glyph unicode="&#xe1;" horiz-adv-x="1264" d="M835 1722q-78 -89 -164 -196q-80 -101 -167 -194q70 4 145 6q75 72 190 197q116 126 190 195q-81 -6 -194 -8zM881 720l-2 -28q-42 -1 -125 -1h-126q-182 0 -315 -64q-95 -46 -145 -156q-43 -95 -43 -205q0 -117 62 -185q79 -79 234 -79q131 0 234 45q119 51 187 154 l-3 -89l-3 -90q121 -7 162 -12q-1 15 -1 45v45q0 252 30 538q6 72 6 110q0 172 -84 269q-56 56 -148 79q-72 18 -175 18q-165 0 -370 -61q-2 -42 -2 -61q0 -21 -2 -63q156 73 345 73q67 -5 120 -21q59 -18 111 -61q56 -55 56 -154q0 -1 -3 -46zM771 581l-4 -50 q-3 -21 -7 -60q-6 -40 -11 -61q-17 -67 -59 -108q-38 -28 -103 -41q-42 -8 -110 -8q-77 0 -145 16q-34 7 -54 40q-18 30 -18 68q13 109 84 157q32 17 63 26q64 17 134 19q11 1 33 1t33 1h164z" />
<glyph unicode="&#xe2;" horiz-adv-x="1348" d="M704 1621h-138q-22 -29 -64 -89q-5 -7 -27.5 -39.5t-34.5 -49.5q-74 -105 -137 -171l58 3q20 0 58 2q60 61 107 120l100 124q13 -21 39 -62t39 -62q37 -60 86 -120q38 -2 59 -2l58 -3q-38 49 -58 83q-49 76 -98 176q-15 30 -47 90zM881 720l-2 -28q-42 -1 -125 -1h-126 q-182 0 -315 -64q-95 -46 -145 -156q-43 -95 -43 -205q0 -117 62 -185q79 -79 234 -79q131 0 234 45q119 51 187 154l-3 -89l-3 -90q121 -7 162 -12q-1 15 -1 45v45q0 252 30 538q6 72 6 110q0 172 -84 269q-56 56 -148 79q-72 18 -175 18q-165 0 -370 -61q-2 -42 -2 -61 q0 -21 -2 -63q156 73 345 73q67 -5 120 -21q59 -18 111 -61q56 -55 56 -154q0 -1 -3 -46zM771 581l-4 -50q-3 -21 -7 -60q-6 -40 -11 -61q-17 -67 -59 -108q-38 -28 -103 -41q-42 -8 -110 -8q-77 0 -145 16q-34 7 -54 40q-18 30 -18 68q13 109 84 157q32 17 63 26 q64 17 134 19q11 1 33 1t33 1h164z" />
<glyph unicode="&#xe3;" horiz-adv-x="1264" d="M627 1554l48 -53q54 -57 137 -57q47 0 75 25q49 40 87 145q17 48 37 88l-105 -3q-10 -19 -18 -45q-7 -23 -18 -47q-25 -54 -73 -59q-34 4 -66 40l-49 53q-59 57 -137 57q-37 0 -74 -23q-22 -15 -40.5 -43t-27 -49.5t-21.5 -59.5q-12 -37 -34 -83q9 0 26 1t26 1q35 0 52 1 q10 22 17 45q6 20 19 48q25 53 70 58q32 -3 69 -40zM881 720l-2 -28q-42 -1 -125 -1h-126q-182 0 -315 -64q-95 -46 -145 -156q-43 -95 -43 -205q0 -117 62 -185q79 -79 234 -79q131 0 234 45q119 51 187 154l-3 -89l-3 -90q121 -7 162 -12q-1 15 -1 45v45q0 252 30 538 q6 72 6 110q0 172 -84 269q-56 56 -148 79q-72 18 -175 18q-165 0 -370 -61q-2 -42 -2 -61q0 -21 -2 -63q156 73 345 73q67 -5 120 -21q59 -18 111 -61q56 -55 56 -154q0 -1 -3 -46zM771 581l-4 -50q-3 -21 -7 -60q-6 -40 -11 -61q-17 -67 -59 -108q-38 -28 -103 -41 q-42 -8 -110 -8q-77 0 -145 16q-34 7 -54 40q-18 30 -18 68q13 109 84 157q32 17 63 26q64 17 134 19q11 1 33 1t33 1h164z" />
<glyph unicode="&#xe4;" horiz-adv-x="1264" d="M327 1346q11 -33 11 -76q0 -65 -29 -122l100 3q66 0 99 1q16 74 16 151v20q0 12 -1 19q-16 0 -48.5 0.5t-48.5 1.5q-33 0 -99 2zM746 1342q-18 -79 -18 -144v-23q0 -9 2 -23q66 -2 99 -2q32 0 98 -2q-13 33 -13 75q0 65 31 123q-66 -2 -99 -2q-32 0 -100 -2zM881 720 l-2 -28q-42 -1 -125 -1h-126q-182 0 -315 -64q-95 -46 -145 -156q-43 -95 -43 -205q0 -117 62 -185q79 -79 234 -79q131 0 234 45q119 51 187 154l-3 -89l-3 -90q121 -7 162 -12q-1 15 -1 45v45q0 252 30 538q6 72 6 110q0 172 -84 269q-56 56 -148 79q-72 18 -175 18 q-165 0 -370 -61q-2 -42 -2 -61q0 -21 -2 -63q156 73 345 73q67 -5 120 -21q59 -18 111 -61q56 -55 56 -154q0 -1 -3 -46zM771 581l-4 -50q-3 -21 -7 -60q-6 -40 -11 -61q-17 -67 -59 -108q-38 -28 -103 -41q-42 -8 -110 -8q-77 0 -145 16q-34 7 -54 40q-18 30 -18 68 q13 109 84 157q32 17 63 26q64 17 134 19q11 1 33 1t33 1h164z" />
<glyph unicode="&#xe5;" horiz-adv-x="1318" d="M854 1525q2 22 2 31q0 99 -64 161q-63 61 -159 61q-124 0 -202 -85q-74 -80 -74 -201q0 -101 63 -162q59 -61 160 -61q112 0 189 72q74 70 85 184zM758 1524q-8 -66 -54 -111q-47 -45 -112 -45q-61 0 -98 37q-40 38 -40 99q0 72 47 124q47 50 119 50q61 -2 100 -40 t39 -98v-8q-1 -3 -1 -8zM881 720l-2 -28q-42 -1 -125 -1h-126q-182 0 -315 -64q-95 -46 -145 -156q-43 -95 -43 -205q0 -117 62 -185q79 -79 234 -79q131 0 234 45q119 51 187 154l-3 -89l-3 -90q121 -7 162 -12q-1 15 -1 45v45q0 252 30 538q6 72 6 110q0 172 -84 269 q-56 56 -148 79q-72 18 -175 18q-165 0 -370 -61q-2 -42 -2 -61q0 -21 -2 -63q156 73 345 73q67 -5 120 -21q59 -18 111 -61q56 -55 56 -154q0 -1 -3 -46zM771 581l-4 -50q-3 -21 -7 -60q-6 -40 -11 -61q-17 -67 -59 -108q-38 -28 -103 -41q-42 -8 -110 -8q-77 0 -145 16 q-34 7 -54 40q-18 30 -18 68q13 109 84 157q32 17 63 26q64 17 134 19q11 1 33 1t33 1h164z" />
<glyph unicode="&#xe6;" horiz-adv-x="2022" d="M1022 940h-5q-2 -1 -6 -1q-2 0 -2 1h-3q-54 96 -175 141q-100 37 -233 37q-167 0 -341 -61l3 -53q0 -9 0.5 -26.5t1.5 -26.5q144 74 325 74q163 0 245 -93q40 -54 50 -72q23 -41 23 -84q0 -9 -1 -14t-1 -15q-85 0 -127 1h-127q-108 0 -183 -15q-101 -22 -172 -72 q-67 -53 -104 -154q-28 -74 -44 -181q-7 -38 -7 -82q0 -110 54 -169q41 -47 115 -65q56 -14 136 -14q139 0 263 63q128 65 206 183q63 -124 205 -188q123 -56 284 -56q50 0 96 9q84 16 185 54q11 4 42.5 16t48.5 18q-8 67 -8 177q0 21 1 32v31q-171 -91 -356 -91 q-89 0 -158 22q-83 26 -132 80q-90 96 -90 238q263 0 793 2q2 28 8 76q5 42 5 75q0 148 -72 250q-44 69 -125 102q-77 30 -165 30q-132 0 -243 -40q-127 -47 -210 -139zM1132 702h-85q23 124 127 228q107 108 278 108q107 0 174 -89q60 -79 60 -198q0 -21 -3 -44 q-308 -5 -551 -5zM894 629l-4 -41q-9 -90 -31 -147q-29 -76 -86 -128q-53 -48 -131 -71q-65 -19 -146 -19q-74 0 -129 37q-62 40 -62 109q0 27 6 60q13 68 54 120q35 45 123 63q69 14 149 16q50 0 75 1h182z" />
<glyph unicode="&#xe7;" horiz-adv-x="1205" d="M416 -179h13q3 -1 12 -1q47 0 82 29q37 30 37 76q0 39 -19 82q-58 8 -107 22q-118 34 -184 117q-94 113 -94 320q0 146 33 263q41 152 134 241q83 80 211 117q102 29 234 29q142 0 270 -47q-8 -35 -12 -67l-12 -73q-125 64 -273 64q-89 0 -159 -26q-85 -33 -136 -93 q-55 -63 -83 -150q-24 -75 -32 -167q0 -65 16 -112q18 -60 60 -91q49 -33 107 -46t141 -20l152 -3h12q69 0 131 30q-4 -73 -4 -161q0 -34 2 -104q-134 -49 -291 -49h-13q25 -55 25 -106q0 -41 -18 -82q-20 -46 -57 -62q-61 -29 -169 -29q-75 0 -147 15q4 17 10 53q4 36 7 54 q44 -23 121 -23zM1039 1075q1 -4 4 -8l-5 2q0 1 0.5 3t0.5 3z" />
<glyph unicode="&#xe8;" horiz-adv-x="1302" d="M567 1281h32q88 0 214 -7q-33 40 -63 84q-61 89 -115 176q-38 58 -59 87q-117 2 -174 7q48 -80 87 -172q42 -98 78 -175zM1111 675l-1 -1q0 15 1 23v23q0 94 -15 155q-20 82 -67 134q-53 53 -146 80q-67 19 -170 25q-113 -2 -209 -34q-109 -37 -184 -113 q-84 -90 -130 -239q-38 -125 -38 -259q0 -100 21 -172q24 -88 79 -149q64 -74 180 -109q88 -27 215 -36q210 0 401 64q-2 38 -2 57v57v57q0 38 1 57q-70 -36 -167 -44q-58 -5 -176 -5q-92 0 -158 14q-89 18 -148 56q-45 32 -66 98q-15 47 -15 122q0 3 3 78h144q47 -1 143 -1 q248 0 497 3q0 5 2 15t2 15zM989 751q-188 -4 -419 -4h-111q-36 0 -110 2q6 116 103 200q96 90 254 90q122 0 202 -85q76 -81 81 -203z" />
<glyph unicode="&#xe9;" horiz-adv-x="1302" d="M790 1620q-78 -89 -164 -196q-80 -101 -167 -194q70 4 145 6q75 72 190 197q116 126 190 195q-81 -6 -194 -8zM1111 675l-1 -1q0 15 1 23v23q0 94 -15 155q-20 82 -67 134q-53 53 -146 80q-67 19 -170 25q-113 -2 -209 -34q-109 -37 -184 -113q-84 -90 -130 -239 q-38 -125 -38 -259q0 -100 21 -172q24 -88 79 -149q64 -74 180 -109q88 -27 215 -36q210 0 401 64q-2 38 -2 57v57v57q0 38 1 57q-70 -36 -167 -44q-58 -5 -176 -5q-92 0 -158 14q-89 18 -148 56q-45 32 -66 98q-15 47 -15 122q0 3 3 78h144q47 -1 143 -1q248 0 497 3 q0 5 2 15t2 15zM989 751q-188 -4 -419 -4h-111q-36 0 -110 2q6 116 103 200q96 90 254 90q122 0 202 -85q76 -81 81 -203z" />
<glyph unicode="&#xea;" horiz-adv-x="1302" d="M709 1522h-138q-22 -29 -64 -89q-5 -7 -27.5 -39.5t-34.5 -49.5q-74 -105 -137 -171l58 3q20 0 58 2q60 61 107 120l100 124q13 -21 39 -62.5t39 -61.5q37 -60 86 -120q38 -2 59 -2l58 -3q-38 49 -58 83q-49 76 -98 176q-15 30 -47 90zM1111 675l-1 -1q0 15 1 23v23 q0 94 -15 155q-20 82 -67 134q-53 53 -146 80q-67 19 -170 25q-113 -2 -209 -34q-109 -37 -184 -113q-84 -90 -130 -239q-38 -125 -38 -259q0 -100 21 -172q24 -88 79 -149q64 -74 180 -109q88 -27 215 -36q210 0 401 64q-2 38 -2 57v57v57q0 38 1 57q-70 -36 -167 -44 q-58 -5 -176 -5q-92 0 -158 14q-89 18 -148 56q-45 32 -66 98q-15 47 -15 122q0 3 3 78h144q47 -1 143 -1q248 0 497 3q0 5 2 15t2 15zM989 751q-188 -4 -419 -4h-111q-36 0 -110 2q6 116 103 200q96 90 254 90q122 0 202 -85q76 -81 81 -203z" />
<glyph unicode="&#xeb;" horiz-adv-x="1302" d="M418 1459q11 -33 11 -76q0 -65 -29 -122l100 3q66 0 99 1q16 74 16 151v20q0 12 -1 19q-16 0 -48.5 0.5t-48.5 1.5q-33 0 -99 2zM837 1455q-18 -79 -18 -144v-23q0 -9 2 -23q66 -2 99 -2q32 0 98 -2q-13 33 -13 75q0 65 31 123q-66 -2 -99 -2q-32 0 -100 -2zM1111 675 l-1 -1q0 15 1 23v23q0 94 -15 155q-20 82 -67 134q-53 53 -146 80q-67 19 -170 25q-113 -2 -209 -34q-109 -37 -184 -113q-84 -90 -130 -239q-38 -125 -38 -259q0 -100 21 -172q24 -88 79 -149q64 -74 180 -109q88 -27 215 -36q210 0 401 64q-2 38 -2 57v57v57q0 38 1 57 q-70 -36 -167 -44q-58 -5 -176 -5q-92 0 -158 14q-89 18 -148 56q-45 32 -66 98q-15 47 -15 122q0 3 3 78h144q47 -1 143 -1q248 0 497 3q0 5 2 15t2 15zM989 751q-188 -4 -419 -4h-111q-36 0 -110 2q6 116 103 200q96 90 254 90q122 0 202 -85q76 -81 81 -203z" />
<glyph unicode="&#xec;" horiz-adv-x="1132" d="M543 1281h32q88 0 214 -7q-33 40 -63 84q-61 89 -115 176q-38 58 -59 87q-117 2 -174 7q48 -80 87 -172q42 -98 78 -175zM799 1110q-34 -508 -97 -1100q40 21 86 21q44 0 78 -21q34 508 97 1100q-41 -23 -86 -23q-43 0 -78 23z" />
<glyph unicode="&#xed;" horiz-adv-x="991" d="M725 1620q-78 -89 -164 -196q-80 -101 -167 -194q70 4 145 6q75 72 190 197q116 126 190 195q-81 -6 -194 -8zM458 1110q-34 -508 -97 -1100q41 21 86 21q43 0 78 -21q34 508 97 1100q-41 -23 -86 -23q-43 0 -78 23z" />
<glyph unicode="&#xee;" horiz-adv-x="1051" d="M704 1621h-138q-22 -29 -64 -89q-5 -7 -27.5 -39.5t-34.5 -49.5q-74 -105 -137 -171l58 3q20 0 58 2q60 61 107 120l100 124q13 -21 39 -62t39 -62q37 -60 86 -120q38 -2 59 -2l58 -3q-38 49 -58 83q-49 76 -98 176q-15 30 -47 90zM718 1110q-34 -508 -97 -1100 q41 21 86 21q43 0 78 -21q34 508 97 1100q-41 -23 -86 -23q-43 0 -78 23z" />
<glyph unicode="&#xef;" horiz-adv-x="942" d="M357 1529q11 -33 11 -76q0 -65 -29 -122l100 3q66 0 99 1q16 74 16 151v20q0 12 -1 19q-16 0 -48.5 0.5t-48.5 1.5q-33 0 -99 2zM776 1525q-18 -79 -18 -144v-23q0 -9 2 -23q66 -2 99 -2q32 0 98 -2q-13 33 -13 75q0 65 31 123q-66 -2 -99 -2q-32 0 -100 -2zM562 1110 q-34 -508 -97 -1100q41 21 86 21q43 0 78 -21q34 508 97 1100q-41 -23 -86 -23q-43 0 -78 23z" />
<glyph unicode="&#xf0;" horiz-adv-x="1262" d="M931 1121q-56 72 -74 94q-32 39 -73 93q194 65 306 113q-3 14 -7 37q-2 7 -4.5 19t-3.5 18q-113 -45 -340 -122q-27 37 -57 72q-30 33 -59 71q-116 2 -200 8q139 -172 163 -201q-58 -16 -140 -41q-73 -22 -142 -39q4 -17 11 -40l10 -40q104 29 310 93q49 -60 78 -97 q25 -33 77 -97q-43 5 -129 11q-98 0 -185 -34q-95 -39 -158 -109q-86 -89 -130 -232q-37 -121 -37 -255q0 -189 88 -298q57 -67 156 -103q87 -32 190 -32q102 0 195 32q98 34 172 104q83 88 123 224q33 111 33 246q0 285 -173 505zM861 918l5 -3q73 -108 73 -289 q0 -114 -19 -194l-68 -93q-41 -48 -108.5 -70.5t-140.5 -22.5q-77 0 -133 24q-65 26 -101 82q-32 48 -39.5 62t-18.5 49q-4 12 -6 24.5t-0.5 28.5t2.5 26.5t5.5 30.5t6.5 27.5t9 30.5t8 28q32 112 95 182q47 53 114.5 80.5t139.5 27.5q85 0 176 -31z" />
<glyph unicode="&#xf1;" horiz-adv-x="1395" d="M626 1554l48 -53q54 -57 137 -57q47 0 75 25q49 40 87 145q17 48 37 88l-105 -3q-11 -19 -18 -45q-7 -23 -18 -47q-25 -54 -73 -59q-34 4 -66 40l-49 53q-59 57 -137 57q-37 0 -74 -23q-22 -15 -40.5 -43t-27 -49.5t-21.5 -59.5q-12 -37 -34 -83q9 0 26.5 1t25.5 1 q35 0 52 1q10 22 17 45q6 20 19 48q25 53 70 58q32 -3 69 -40zM1129 675q2 50 2 75q0 139 -45 239q-34 63 -108 98q-65 29 -149 29q-196 0 -401 -152q1 12 1.5 35.5t0.5 35.5q0 11 1 35t1 35q-105 6 -162 13q-8 -575 -129 -1108q85 8 235 16q31 307 42 614q13 163 97 257 q50 53 125 74q64 18 140 18q54 0 94 -18q49 -23 72 -67q25 -57 25 -135q0 -41 -5 -93q-57 -373 -77 -650q127 -5 240 -16q-13 144 -13 303q0 165 13 362z" />
<glyph unicode="&#xf2;" horiz-adv-x="1265" d="M549 1380h32q88 0 214 -7q-33 41 -63 84q-61 89 -115 176q-38 58 -59 87q-117 2 -174 7q48 -80 87 -172q42 -98 78 -175zM684 1114q-112 0 -199 -30q-107 -37 -173 -110q-87 -95 -126 -254q-29 -117 -29 -269q0 -196 82 -309q53 -76 150 -110q83 -29 192 -29 q111 0 201 29q106 33 173 111q86 97 127 256q29 116 29 270q0 192 -82 305q-56 76 -153 110q-86 30 -192 30zM673 1002q70 -1 129.5 -29t91.5 -83q54 -92 54 -232q0 -99 -15 -163q-25 -108 -93 -155q-91 -51 -229 -51q-145 0 -224 50q-38 28 -51 77q-12 40 -12 96 q0 110 21 195q27 108 86 184q88 111 242 111z" />
<glyph unicode="&#xf3;" horiz-adv-x="1265" d="M878 1722q-78 -89 -164 -196q-80 -101 -167 -194q70 4 145 6q75 72 190 197q116 126 190 195q-81 -6 -194 -8zM684 1114q-112 0 -199 -30q-107 -37 -173 -110q-87 -95 -126 -254q-29 -117 -29 -269q0 -196 82 -309q53 -76 150 -110q83 -29 192 -29q111 0 201 29 q106 33 173 111q86 97 127 256q29 116 29 270q0 192 -82 305q-56 76 -153 110q-86 30 -192 30zM673 1002q70 -1 129.5 -29t91.5 -83q54 -92 54 -232q0 -99 -15 -163q-25 -108 -93 -155q-91 -51 -229 -51q-145 0 -224 50q-38 28 -51 77q-12 40 -12 96q0 110 21 195 q27 108 86 184q88 111 242 111z" />
<glyph unicode="&#xf4;" horiz-adv-x="1265" d="M769 1484h-138q-22 -29 -64 -89q-5 -7 -27.5 -39.5t-34.5 -49.5q-74 -105 -137 -171l58 3q20 0 58 2q60 61 107 120l100 124q13 -21 39 -62.5t39 -61.5q37 -60 86 -120q38 -2 59 -2l58 -3q-38 49 -58 83q-49 76 -98 176q-15 30 -47 90zM684 1114q-112 0 -199 -30 q-107 -37 -173 -110q-87 -95 -126 -254q-29 -117 -29 -269q0 -196 82 -309q53 -76 150 -110q83 -29 192 -29q111 0 201 29q106 33 173 111q86 97 127 256q29 116 29 270q0 192 -82 305q-56 76 -153 110q-86 30 -192 30zM673 1002q70 -1 129.5 -29t91.5 -83q54 -92 54 -232 q0 -99 -15 -163q-25 -108 -93 -155q-91 -51 -229 -51q-145 0 -224 50q-38 28 -51 77q-12 40 -12 96q0 110 21 195q27 108 86 184q88 111 242 111z" />
<glyph unicode="&#xf5;" horiz-adv-x="1265" d="M670 1554l48 -53q54 -57 137 -57q47 0 75 25q49 40 87 145q17 48 37 88q-12 0 -33 -1t-38.5 -1.5t-33.5 -0.5q-11 -19 -18 -45q-7 -23 -18 -47q-25 -54 -73 -59q-34 4 -66 40l-49 53q-59 57 -137 57q-37 0 -74 -23q-22 -15 -40.5 -43t-27 -49.5t-21.5 -59.5 q-12 -37 -34 -83q9 0 26 1t26 1q35 0 52 1q10 22 17 45q6 20 19 48q25 53 70 58q32 -3 69 -40zM684 1114q-112 0 -199 -30q-107 -37 -173 -110q-87 -95 -126 -254q-29 -117 -29 -269q0 -196 82 -309q53 -76 150 -110q83 -29 192 -29q111 0 201 29q106 33 173 111 q86 97 127 256q29 116 29 270q0 192 -82 305q-56 76 -153 110q-86 30 -192 30zM673 1002q70 -1 129.5 -29t91.5 -83q54 -92 54 -232q0 -99 -15 -163q-25 -108 -93 -155q-91 -51 -229 -51q-145 0 -224 50q-38 28 -51 77q-12 40 -12 96q0 110 21 195q27 108 86 184 q88 111 242 111z" />
<glyph unicode="&#xf6;" horiz-adv-x="1265" d="M370 1346q11 -33 11 -76q0 -65 -29 -122l100 3q66 0 99 1q16 74 16 151v20q0 12 -1 19q-16 0 -48.5 0.5t-48.5 1.5q-33 0 -99 2zM789 1342q-18 -79 -18 -144v-23q0 -9 2 -23q66 -2 99 -2q32 0 98 -2q-13 33 -13 75q0 65 31 123q-66 -2 -99 -2q-32 0 -100 -2zM684 1114 q-112 0 -199 -30q-107 -37 -173 -110q-87 -95 -126 -254q-29 -117 -29 -269q0 -196 82 -309q53 -76 150 -110q83 -29 192 -29q111 0 201 29q106 33 173 111q86 97 127 256q29 116 29 270q0 192 -82 305q-56 76 -153 110q-86 30 -192 30zM673 1002q70 -1 129.5 -29t91.5 -83 q54 -92 54 -232q0 -99 -15 -163q-25 -108 -93 -155q-91 -51 -229 -51q-145 0 -224 50q-38 28 -51 77q-12 40 -12 96q0 110 21 195q27 108 86 184q88 111 242 111z" />
<glyph unicode="&#xf7;" horiz-adv-x="1556" d="M700 1154q-10 -178 -17 -267q22 -1 66 -1h65h66q44 0 66 1l15 134q2 21 7.5 65l8.5 68q-27 -1 -80 -1h-80h-58q-40 0 -59 1zM185 717q-9 -122 -17 -200q320 4 713 4q259 0 517 -3q5 85 17 199q-368 -5 -658 -5q-333 0 -572 5zM636 345l-15 -132q-5 -45 -15 -133 q54 0 81 1h80h58q39 0 58 -1q4 112 16 265q-44 0 -66 1h-66h-65q-22 -1 -66 -1z" />
<glyph unicode="&#xf8;" horiz-adv-x="1264" d="M223 173q-32 -34 -86 -94q-42 -47 -87 -93q21 -17 34 -29q16 -17 33 -30l84 87q41 42 81 87q109 -98 303 -98q108 0 198 31q104 36 169 110q86 93 127 249q30 119 30 266q0 170 -63 288q29 31 85 93q27 31 86 92q-65 57 -68 59q-27 -29 -82 -87t-82 -87q-111 96 -297 96 q-108 0 -201 -30q-104 -34 -174 -109q-86 -93 -125 -247q-30 -114 -30 -264q0 -179 65 -290zM873 897q-133 -146 -265 -295q-87 -99 -265 -297q-24 67 -24 167q0 114 22 203q27 113 86 192q41 54 107 86q61 29 129 29q136 0 210 -85zM916 798l9 -1q21 -62 21 -143 q0 -114 -21 -207q-27 -121 -91 -199q-40 -55 -102.5 -84.5t-129.5 -29.5q-138 0 -210 85q174 192 259 289q89 102 258 290h7z" />
<glyph unicode="&#xf9;" horiz-adv-x="1341" d="M540 1182h32q88 0 214 -7q-33 41 -63 84q-61 89 -115 176q-38 58 -59 87q-117 2 -174 7q48 -80 87 -172q42 -98 78 -175zM536 1h27q106 0 209 61q97 58 159 155q-12 -110 -17 -194q109 -6 162 -11q1 548 120 1099q-97 -10 -196 -15q-45 -252 -66 -455q-26 -162 -111 -256 q-86 -94 -243 -94q-116 0 -169 92q-35 71 -35 189q0 12 1 18v16q19 258 23 492q-33 4 -66 6q-24 1 -66 7q0 -30 1 -45v-45q0 -282 -32 -579q-5 -58 -5 -104q0 -118 40 -211q33 -65 111 -98q66 -28 153 -28z" />
<glyph unicode="&#xfa;" horiz-adv-x="1341" d="M847 1620q-78 -89 -164 -196q-80 -101 -167 -194q70 4 145 6q75 72 190 197q116 126 190 195q-81 -6 -194 -8zM536 1h27q106 0 209 61q97 58 159 155q-12 -110 -17 -194q109 -6 162 -11q1 548 120 1099q-97 -10 -196 -15q-45 -252 -66 -455q-26 -162 -111 -256 q-86 -94 -243 -94q-116 0 -169 92q-35 71 -35 189q0 12 1 18v16q19 258 23 492q-33 4 -66 6q-24 1 -66 7q0 -30 1 -45v-45q0 -282 -32 -579q-5 -58 -5 -104q0 -118 40 -211q33 -65 111 -98q66 -28 153 -28z" />
<glyph unicode="&#xfb;" horiz-adv-x="1363" d="M704 1621h-138q-22 -29 -64 -89q-5 -7 -27.5 -39.5t-34.5 -49.5q-74 -105 -137 -171l58 3q20 0 58 2q60 61 107 120l100 124q13 -21 39 -62t39 -62q37 -60 86 -120q38 -2 59 -2l58 -3q-38 49 -58 83q-49 76 -98 176q-15 30 -47 90zM558 1h27q106 0 209 61q97 58 159 155 q-12 -110 -17 -194q109 -6 162 -11q1 548 120 1099q-97 -10 -196 -15q-45 -252 -66 -455q-26 -162 -111 -256q-86 -94 -243 -94q-116 0 -169 92q-35 71 -35 189q0 12 1 18v16q19 258 23 492q-33 4 -66 6q-24 1 -66 7q0 -30 1 -45v-45q0 -282 -32 -579q-5 -58 -5 -104 q0 -118 40 -211q33 -65 111 -98q66 -28 153 -28z" />
<glyph unicode="&#xfc;" horiz-adv-x="1341" d="M492 1459q11 -33 11 -76q0 -65 -29 -122l100 3q66 0 99 1q16 74 16 151v20q0 12 -1 19q-16 0 -48.5 0.5t-48.5 1.5q-33 0 -99 2zM911 1455q-18 -79 -18 -144v-23q0 -9 2 -23q66 -2 99 -2q32 0 98 -2q-13 33 -13 75q0 65 31 123q-66 -2 -99 -2q-32 0 -100 -2zM536 1h27 q106 0 209 61q97 58 159 155q-12 -110 -17 -194q109 -6 162 -11q1 548 120 1099q-97 -10 -196 -15q-45 -252 -66 -455q-26 -162 -111 -256q-86 -94 -243 -94q-116 0 -169 92q-35 71 -35 189q0 12 1 18v16q19 258 23 492q-33 4 -66 6q-24 1 -66 7q0 -30 1 -45v-45 q0 -282 -32 -579q-5 -58 -5 -104q0 -118 40 -211q33 -65 111 -98q66 -28 153 -28z" />
<glyph unicode="&#xfd;" horiz-adv-x="1362" d="M713 1620q-78 -89 -164 -196q-80 -101 -167 -194q70 4 145 6q75 72 190 197q116 126 190 195q-81 -6 -194 -8zM754 -83q62 131 139 301q46 100 140 300q172 365 297 592q-94 -11 -177 -18q-128 -211 -370 -650q-147 292 -344 649q-72 5 -171 19q137 -324 389 -1009 q-9 -16 -25.5 -43.5t-20.5 -35.5t-20.5 -35.5t-25.5 -43.5q-48 -51 -49 -52q-62 -64 -108 -78q-53 -16 -122 -16q-42 -2 -63 -4q-12 -74 -17 -111q-8 -59 -18 -112q60 6 95 8q107 5 187 29q81 24 148 100q50 57 96 137q7 14 21.5 40t18.5 33z" />
<glyph unicode="&#xfe;" horiz-adv-x="1383" d="M423 176l18 6q34 -85 120 -133q81 -46 180 -46h27q86 0 167 38q87 41 139 107q83 97 123 243q31 119 31 262q0 192 -82 316q-44 67 -118.5 104t-160.5 37h-27q-106 0 -202 -58q-97 -59 -152 -152q13 173 37 621q-104 13 -162 25q-24 -987 -172 -1962l83 12q40 6 83 9 q23 166 68 571zM1064 558q-8 -104 -43 -195q-39 -103 -107 -162q-79 -69 -184 -69q-72 0 -128 26q-64 29 -93 85q-55 88 -55 233q0 109 23 201q27 116 87 192q41 53 100.5 82.5t124.5 29.5q142 0 215 -101q64 -90 64 -241q0 -45 -4 -81z" />
<glyph unicode="&#xff;" horiz-adv-x="1362" d="M542 1459q11 -33 11 -76q0 -65 -29 -122l100 3q66 0 99 1q16 74 16 151v20q0 12 -1 19q-16 0 -48.5 0.5t-48.5 1.5q-33 0 -99 2zM961 1455q-18 -79 -18 -144v-23q0 -9 2 -23q66 -2 99 -2q32 0 98 -2q-13 33 -13 75q0 65 31 123q-66 -2 -99 -2q-32 0 -100 -2zM754 -83 q62 131 139 301q46 100 140 300q172 365 297 592q-94 -11 -177 -18q-128 -211 -370 -650q-147 292 -344 649q-72 5 -171 19q137 -324 389 -1009q-9 -16 -25.5 -43.5t-20.5 -35.5t-20.5 -35.5t-25.5 -43.5q-48 -51 -49 -52q-62 -64 -108 -78q-53 -16 -122 -16q-42 -2 -63 -4 q-12 -74 -17 -111q-8 -59 -18 -112q60 6 95 8q107 5 187 29q81 24 148 100q50 57 96 137q7 14 21.5 40t18.5 33z" />
<glyph unicode="&#x152;" horiz-adv-x="2270" d="M1298 792h684q10 98 17 147q-311 -5 -688 -7q18 193 45 416q421 5 731 24q13 62 28 111q-415 -29 -977 -29q-238 0 -367 -24q-212 -41 -354 -157q-122 -109 -177 -306q-42 -151 -42 -337q0 -131 31 -231q39 -124 119 -202q107 -93 283 -131q127 -28 321 -28 q625 0 1052 -28q-12 99 -18 261q-246 11 -727 17q15 234 39 504zM1040 1347h137q-15 -160 -47 -529q-7 -77 -22.5 -255t-23.5 -274h-134q-144 0 -242 25q-130 33 -208 111q-56 56 -88 130t-32 153q0 14 2 40q16 157 45 248q44 137 132 215q93 78 230 111q104 25 251 25z" />
<glyph unicode="&#x153;" horiz-adv-x="2110" d="M1846 253v22q-167 -87 -363 -87q-90 0 -152 14q-82 18 -137 57q-47 48 -65 128q-14 55 -14 149q0 45 1 68t1 66q350 0 795 5q4 25 5 40q1 13 5 39q2 18 2 27q0 53 -25 110q-19 42 -54 97q-43 66 -127 101q-74 30 -167 30q-142 0 -271 -54q-138 -59 -225 -171 q-57 112 -172 171q-107 53 -245 53q-100 0 -183 -31q-98 -36 -155 -109q-82 -100 -117 -271q-24 -116 -24 -276q0 -185 69 -292q43 -73 132 -109q79 -32 176 -32q141 0 257 52q128 57 206 170q73 -116 213 -173q119 -50 281 -50q184 0 363 69q-10 90 -10 187zM1771 785 q-54 -1 -160.5 -2.5t-159.5 -1.5q-159 -3 -320 -3q26 83 124 166q106 91 272 91q128 0 190 -87q55 -76 55 -144v-9q0 -7 -1 -10zM647 1014h11q142 0 230 -110q63 -99 63 -238q0 -94 -25 -173q-30 -97 -86 -159q-93 -108 -257 -108q-63 0 -117.5 26.5t-85.5 76.5 q-52 84 -52 219q0 103 17 185q22 105 77 177q40 52 99.5 78t125.5 26z" />
<glyph unicode="&#x178;" horiz-adv-x="1526" d="M713 1861q11 -38 11 -71q0 -63 -27 -113q62 2 91 2q60 0 91 1q16 70 16 144v17q-1 5 -1 16q-15 0 -45 0.5t-45 1.5q-29 0 -91 2zM1103 1857q-17 -70 -17 -133q0 -14 2 -44q31 -1 92 -1q29 0 91 -2q-12 33 -12 70q0 59 28 114q-62 -2 -92 -2q-16 -1 -46.5 -1t-45.5 -1z M348 1484q69 -147 149 -334.5t119.5 -286.5t135.5 -341q-25 -258 -49 -485q49 0 74 1h72h54q36 0 54 -1q16 291 34 486l284 486q142 243 299 475q-114 -12 -195 -16q-179 -259 -485 -760q-217 491 -354 758q-16 1 -48 3.5t-48 4.5q-64 6 -96 10z" />
<glyph unicode="&#x2c6;" horiz-adv-x="904" d="M704 1621h-138q-22 -29 -64 -89q-5 -7 -27.5 -39.5t-34.5 -49.5q-74 -105 -137 -171l58 3q20 0 58 2q60 61 107 120l100 124q13 -21 39 -62t39 -62q37 -60 86 -120q38 -2 59 -2l58 -3q-38 49 -58 83q-49 76 -98 176q-15 30 -47 90z" />
<glyph unicode="&#x2dc;" horiz-adv-x="908" d="M592 1433l48 -53q54 -57 137 -57q47 0 75 25q49 40 87 145q17 48 37 88l-105 -3q-11 -20 -18 -45q-7 -23 -18 -47q-25 -54 -73 -59q-34 4 -66 40l-49 53q-59 57 -137 57q-37 0 -74 -23q-22 -15 -40.5 -43t-27 -49.5t-21.5 -59.5q-12 -37 -34 -83q9 1 26.5 1t25.5 1 q35 0 52 1q10 22 17 45q6 20 19 48q25 53 70 58q32 -3 69 -40z" />
<glyph unicode="&#x2000;" horiz-adv-x="944" />
<glyph unicode="&#x2001;" horiz-adv-x="1889" />
<glyph unicode="&#x2002;" horiz-adv-x="944" />
<glyph unicode="&#x2003;" horiz-adv-x="1889" />
<glyph unicode="&#x2004;" horiz-adv-x="629" />
<glyph unicode="&#x2005;" horiz-adv-x="472" />
<glyph unicode="&#x2006;" horiz-adv-x="314" />
<glyph unicode="&#x2007;" horiz-adv-x="314" />
<glyph unicode="&#x2008;" horiz-adv-x="236" />
<glyph unicode="&#x2009;" horiz-adv-x="377" />
<glyph unicode="&#x200a;" horiz-adv-x="104" />
<glyph unicode="&#x2010;" horiz-adv-x="821" d="M202 633h-35q4 -17 4 -41q0 -56 -28 -103q225 9 516 9q-6 21 -6 43q0 53 30 102q-332 -11 -447 -11q-23 0 -34 1z" />
<glyph unicode="&#x2011;" horiz-adv-x="821" d="M202 633h-35q4 -17 4 -41q0 -56 -28 -103q225 9 516 9q-6 21 -6 43q0 53 30 102q-332 -11 -447 -11q-23 0 -34 1z" />
<glyph unicode="&#x2012;" horiz-adv-x="821" d="M202 633h-35q4 -17 4 -41q0 -56 -28 -103q225 9 516 9q-6 21 -6 43q0 53 30 102q-332 -11 -447 -11q-23 0 -34 1z" />
<glyph unicode="&#x2013;" horiz-adv-x="1320" d="M165 623q25 -21 25 -56q0 -44 -36 -68q336 2 502 2q164 0 502 -2q-28 18 -28 54q0 45 39 70q-252 -3 -502 -3q-251 0 -502 3z" />
<glyph unicode="&#x2014;" horiz-adv-x="2344" d="M165 623q16 -8 24.5 -13.5t19 -19.5t13.5 -33q-4 -14 -17 -26.5t-21.5 -17t-29.5 -14.5q680 2 1014 2t1014 -2q-25 11 -38 22q-22 18 -23 44q5 12 12 21q17 16 39 27l11 5.5t10 4.5q-507 -3 -1014 -3t-1014 3z" />
<glyph unicode="&#x2018;" horiz-adv-x="581" d="M486 933q4 99 12 198q54 169 136 379q-72 -9 -142 -12q-56 -89 -112 -187q-51 -89 -109 -188q-12 -116 -27 -199q88 11 167 11q25 0 75 -2z" />
<glyph unicode="&#x2019;" horiz-adv-x="574" d="M376 1491q-1 -27 -5 -86l-6 -86q-31 -95 -63 -186q-39 -113 -68 -184q46 6 68 7l68 3q61 95 111 184q60 104 108 185q13 107 25 173q-68 -11 -169 -11h-34q-24 0 -35 1z" />
<glyph unicode="&#x201a;" horiz-adv-x="523" d="M103 235q-6 -104 -11 -158q-50 -157 -108 -305q27 5 55 6l54 3q62 100 91 151t89 153q2 13 5.5 40t4.5 40q4 38 12 79q-67 -10 -139 -10h-26q-18 0 -27 1z" />
<glyph unicode="&#x201c;" horiz-adv-x="1078" d="M976 896q-5 44 -5 106q0 48 3 98q68 231 151 383l-70 -3q-11 0 -35 -2t-35 -2q-22 -29 -45 -63t-39.5 -59t-42 -66.5t-37 -61t-40 -68t-36.5 -62.5q-5 -67 -11 -194l121 -3q80 -2 121 -3zM345 897l120 3q20 126 28 200q29 83 61 186q30 98 60 185q-46 2 -70 2 q-25 -1 -71 1q-114 -227 -208 -381q-14 -102 -42 -202q62 5 122 6z" />
<glyph unicode="&#x201d;" horiz-adv-x="1025" d="M846 1474q-12 -71 -27 -186q-53 -151 -112 -347q21 -1 65 -1t65 -1q79 165 195 356q22 129 40 188q-153 -8 -226 -9zM369 1478q3 -120 3 -121q0 -22 -2 -68q-68 -227 -140 -358l65 3q10 0 31.5 1t32.5 2q20 27 41.5 58.5t37 55t39.5 62.5t34.5 56.5t37.5 63.5t35 59 q8 120 11 180l-113 3q-56 0 -113 3z" />
<glyph unicode="&#x201e;" horiz-adv-x="1085" d="M650 360q-14 -71 -29 -202q-68 -194 -121 -375q23 -1 71 -1q24 0 70 -2q107 217 211 386q20 121 44 204q-47 -3 -246 -10zM134 364q3 -51 3 -102q0 -32 -2 -102q-73 -242 -151 -388q70 4 141 6q69 92 126 189q38 65 116 195q5 61 13 196q-123 2 -246 6z" />
<glyph unicode="&#x2022;" horiz-adv-x="843" d="M197 762q-1 -5 -1 -15v-16q0 -117 70 -182q66 -63 176 -63q127 0 204 76q90 89 90 234q0 109 -68 174t-172 65q-131 0 -212 -76q-75 -69 -87 -197z" />
<glyph unicode="&#x2026;" horiz-adv-x="2009" d="M107 354q38 -61 38 -146q0 -113 -68 -198l152 3q100 0 150 1q49 99 49 206q0 64 -20 129l-150 3q-51 0 -151 2zM1471 350q-53 -97 -53 -206q0 -68 24 -130q51 -1 151 -1l150 -3q-41 60 -41 142q0 113 71 202q-135 -4 -302 -4zM1091 347h-302q0 -178 -29 -331h302 q-2 22 -2 33v32q0 130 31 266z" />
<glyph unicode="&#x202f;" horiz-adv-x="377" />
<glyph unicode="&#x2039;" horiz-adv-x="795" d="M167 636l-6 -73q76 -80 201 -199q120 -114 200 -201q0 90 4 165q-86 94 -269 271l161 134q80 66 156 138q8 56 11 83t13 83q-102 -97 -233 -203q-173 -140 -238 -198z" />
<glyph unicode="&#x203a;" horiz-adv-x="795" d="M647 564l6 73q-33 33 -101 99l-102 99q-122 118 -197 203q0 -73 -5 -166q63 -74 132 -138q90 -88 136 -134q-88 -77 -159 -134q-74 -59 -157 -137q-4 -28 -10 -82q-3 -27 -13 -83q47 44 115 102q130 110 238 198q78 66 117 100z" />
<glyph unicode="&#x205f;" horiz-adv-x="472" />
<glyph unicode="&#x20ac;" horiz-adv-x="1485" d="M1243 156v-35q-158 -115 -336 -115q-119 0 -212 32q-113 38 -179 107q-133 133 -135 350q-68 -2 -101 -2l-102 -3q20 48 31 72q17 40 29 71q44 0 66 1h66q8 74 13 113q6 57 6 109q-58 2 -87 2t-87 2q22 42 26 50q11 26 24 51q80 -5 147 -5q25 114 74 210q53 104 137 177 q82 71 198 108q102 33 217 33q190 0 315 -112q-5 -26 -12.5 -74t-8.5 -57q-70 79 -129 112q-78 43 -174 43q-82 0 -157.5 -32.5t-131.5 -95.5q-109 -124 -156 -314h271q149 0 270 4l-27 -51l-27 -51q-200 -2 -298 -2h-105q-70 0 -105 1q-19 -105 -19 -219q69 1 208 1h208 q-9 -23 -29 -69t-29 -69q-48 0 -72 1h-73q-69 0 -205 -2q5 -31 22.5 -63.5t33 -51.5t43.5 -51q91 -102 253 -102q97 0 189 47q78 41 157 116q-7 -140 -7 -237zM1354 1377l2 -8l-3 3z" />
<glyph unicode="&#x2122;" horiz-adv-x="1691" d="M844 1436v36q-411 7 -497 11q3 -13 7 -37q4 -23 7 -38q87 -4 194 -4q-5 -270 -85 -474q12 0 38 1t38 1q51 0 76 1q29 163 29 318q0 62 -7 151q66 -2 100 -1q66 0 99 -1q0 24 1 36zM1144 1472h-158q-56 -374 -84 -536h152q-2 42 -2 62v61q0 131 9 333q14 3 19 5 q4 -13 18 -59t19 -63t17.5 -56.5t20.5 -62.5t20 -56t23.5 -61t23.5 -56h80q86 245 201 419q6 -2 9 -2l8 -3q-58 -180 -58 -351q0 -61 7 -116q50 -2 76 -2l75 -3q-31 106 -31 227q0 170 60 330q-13 -1 -38.5 -1.5t-38.5 -0.5q-52 -2 -77 -2q-115 -133 -230 -331 q-35 79 -63 162q-7 21 -27 76.5t-31 86.5z" />
<glyph unicode="&#xe000;" horiz-adv-x="1105" d="M0 1105h1105v-1105h-1105v1105z" />
</font>
</defs>
</svg>
